<?xml version="1.0" standalone="no"?>
<!DOCTYPE svg PUBLIC "-//W3C//DTD SVG 1.1//EN" "http://www.w3.org/Graphics/SVG/1.1/DTD/svg11.dtd" >
<svg xmlns="http://www.w3.org/2000/svg" xmlns:xlink="http://www.w3.org/1999/xlink" version="1.1">
<metadata></metadata>
<defs>
<font id="segatharegular" horiz-adv-x="579" >
<font-face units-per-em="2048" ascent="1638" descent="-410" />
<missing-glyph horiz-adv-x="512" />
<glyph unicode="&#xd;" horiz-adv-x="1040" />
<glyph horiz-adv-x="0" />
<glyph horiz-adv-x="0" />
<glyph unicode=" "  horiz-adv-x="512" />
<glyph unicode="&#x09;" horiz-adv-x="512" />
<glyph unicode="&#xa0;" horiz-adv-x="512" />
<glyph unicode="!" horiz-adv-x="710" d="M0 160v4q5 24 31 24q12 0 18 -2q25 -5 25 -30q-2 -25 -27 -25q-9 0 -29 4q-18 6 -18 25zM84 365v8q37 150 128.5 357.5t173 361t204.5 370.5l-4 13q0 11 20 29.5t25 27.5q3 8 14 8q8 0 15.5 -4t7.5 -10l-2 -6q-165 -283 -318 -598.5t-235 -556.5q-7 -13 -19 -13 q-10 0 -10 13z" />
<glyph unicode="&#x22;" horiz-adv-x="391" d="M262 1395v4q2 15 31 63q22 41 51 74q5 8 14 8q8 0 14.5 -6.5t6.5 -13.5q0 -9 -4 -13q-15 -17 -48 -62t-36 -56q0 -5 -4 -9t-8 -4h-5q-12 4 -12 15zM346 1393v6q54 97 76 110l8 2q9 0 12 -8l2 -8q0 -9 -6 -12q-10 -5 -36 -40.5t-35 -51.5q-3 -9 -15 -9h-4z" />
<glyph unicode="#" horiz-adv-x="856" d="M172 485v4q0 23 14 23q42 6 50 6q24 0 34 -10q16 2 54 2l53 129q-27 -1 -69.5 -4t-53.5 -4q-14 0 -14 14t14 14q54 9 57 9q17 0 17 -9l-2 -2q18 2 61 2q39 84 78 158q0 27 29 66q2 4 8 4q7 0 14.5 -9t7.5 -18l-2 -8q-38 -54 -106 -193l106 3l107 -3q56 128 123 254 q6 9 16 9q8 0 15.5 -4.5t7.5 -10.5l-123 -250q93 -3 143 -14q10 -3 10 -14q0 -15 -14 -15h-2q-85 15 -148 21l-57 -129l119 -6q14 0 14 -15q0 -16 -16 -16q-39 4 -131 8q-68 -153 -105 -264q-3 -12 -12 -12q-10 0 -10 12v4q29 94 94 262q-139 2 -219 2q-68 -163 -80 -217 q-6 -12 -12 -12q-11 0 -11 12l2 4q16 61 76 213q-60 -3 -125 -10q-12 0 -12 14zM348 510l219 -2l54 129q-61 6 -125 6l-88 -2z" />
<glyph unicode="$" horiz-adv-x="935" d="M70 334q0 29 12 37l8 4q7 0 13 -8t6 -19q6 -96 137 -96l18 2q63 197 199 539q-9 4 -45 19.5t-53 24.5t-49.5 26.5t-50 33.5t-37.5 38.5t-29 49.5t-9 57v5q0 27 13 59q20 61 76.5 113t131.5 87t153.5 57.5t154.5 31.5q9 22 49 106q-10 7 -10 21q1 18 26.5 58.5t26.5 43.5 q6 12 23 12q8 0 14 -4t6 -8v-6q-27 -51 -106 -221l61 4l49 -4q38 -5 65 -33.5t27 -67.5v-4q0 -43 -35 -84q-9 -18 -22 -18q-9 0 -16 7.5t-7 16.5l4 13q31 39 31 59q0 36 -59 43l-43 4q-41 0 -84 -6q-78 -166 -215 -506q48 -24 80.5 -44t68.5 -49.5t55 -64.5t19 -75v-6 q0 -11 -4 -35q-19 -77 -90.5 -149t-164.5 -118.5t-183 -60.5q-54 -188 -72 -258q-6 -16 -18 -16q-15 0 -15 18q29 124 70 252l-23 -2q-68 0 -110.5 30t-46.5 91zM233 1038q0 -56 55 -99t161 -93l30 -15q59 147 207 492q-96 -17 -187.5 -50t-167 -87.5t-93.5 -116.5 q-5 -25 -5 -29v-2zM299 258q127 22 250 108t145 185q4 16 4 24q0 114 -211 205q-54 -135 -106 -276q-44 -125 -82 -246z" />
<glyph unicode="%" horiz-adv-x="1222" d="M-291 98l4 11q113 153 248.5 302t264 269.5t293 254t298.5 234t316 230.5q110 79 110 117q0 28 -61 40q-58 7 -119 7q-154 0 -351 -30.5t-311 -70.5l2 -18q0 -57 -39 -140.5t-94 -146.5t-96 -63h-4q-49 3 -49 55q0 74 81.5 194.5t139.5 143.5q-16 4 -29 4l-28 -2 q-15 0 -15 14q0 16 15 19q14 4 34 4q39 0 64 -25q119 35 315.5 62.5t350.5 27.5q93 0 139 -10q104 -15 104 -72q0 -60 -135 -159q-128 -91 -199 -142.5t-189.5 -138.5t-193.5 -147t-178.5 -145t-180.5 -158.5t-164 -161t-163.5 -178.5t-146.5 -187q-8 -8 -16 -8 q-6 0 -11.5 4t-5.5 10zM158 1147q0 -21 16 -21h4q33 0 76.5 58.5t73.5 132.5t30 121v10q-15 0 -64 -59.5t-92.5 -134t-43.5 -107.5zM344 238q0 41 22 98t50 102q30 51 63 76t60 25q25 0 39 -18t14 -50q0 -51 -37 -121q-86 -168 -164 -168l-6 2q-41 0 -41 54zM381 231 q0 -16 8 -16q27 3 66 52.5t67.5 110.5t28.5 95q0 25 -21 25h-2q-27 -1 -63 -55.5t-60 -118t-24 -93.5z" />
<glyph unicode="&#x26;" horiz-adv-x="940" d="M66 229q0 39 36 78q56 63 161 139t183 117q-27 6 -81.5 12.5t-79.5 12.5q-56 17 -56 49q0 37 64 84q75 52 190 99.5t213 64.5q32 114 84 266q3 12 21 12q16 0 16 -14l-2 -8q-53 -124 -88 -252l45 4l37 -4q34 -6 54 -28t20 -54l-4 -27q-3 -30 -27 -30q-8 0 -14.5 6 t-6.5 16l3 27q0 47 -74 47q-91 0 -257.5 -65.5t-209.5 -100.5q-29 -29 -29 -43q0 -18 29 -21q180 -30 217 -30q14 -4 14 -17q0 -11 -10 -14q-71 -20 -192 -105.5t-197 -168.5q-25 -25 -25 -50q0 -19 19 -28q12 -6 39 -6q92 0 302 52t265 83l8 2q6 0 11.5 -5.5t5.5 -11.5 q0 -3 -9 -12q-63 -35 -260 -82q-65 -193 -121 -395q-3 -12 -16 -12q-10 0 -10 10v6q46 171 117 385q-197 -47 -301 -47q-41 0 -62.5 16t-21.5 43z" />
<glyph unicode="'" horiz-adv-x="239" d="M160 1339v4q6 30 61 93l-2 12q0 7 8 12l29 17l12 2q21 0 21 -17q0 -10 -6 -16q-7 -9 -32 -31.5t-42 -43t-21 -36.5q-3 -10 -14 -10h-4q-10 3 -10 14z" />
<glyph unicode="(" horiz-adv-x="649" d="M0 395q0 251 143 557q30 63 74 138.5t110.5 170t135 171.5t150.5 133.5t155 64.5h6q10 0 16.5 -8t6.5 -16q0 -17 -13 -17q-48 -8 -53 -8l-12 2q-65 -23 -137 -82.5t-132.5 -132.5t-118 -156.5t-96 -151.5t-63.5 -120q-139 -292 -139 -532q0 -212 121 -330q3 -3 23.5 -4.5 t21.5 -16.5v-2q0 -18 -33 -18q-27 0 -39 12q-127 124 -127 346z" />
<glyph unicode=")" horiz-adv-x="825" d="M-295 12q0 17 12 17h2q4 -1 16.5 -3.5t20 -5t8.5 -6.5h3q83 0 177.5 58.5t180.5 155t166 225.5t138 265t93 278t35 261q0 129 -43 222q-34 76 -82 94q-12 6 -37 6h-2q-14 0 -14 10q0 13 14 13h10q88 0 142 -117q43 -101 43 -240q0 -124 -33.5 -268.5t-91 -283 t-137.5 -267.5t-169 -226t-190 -155.5t-196 -58.5q-18 0 -50 4q-16 3 -16 22z" />
<glyph unicode="*" horiz-adv-x="462" d="M295 1374q0 5 5.5 10t12.5 5h99l-35 41l-4 10q0 14 12 14q6 0 12 -6l33 -47q28 55 66 106q9 9 14 9t9.5 -4.5t4.5 -10.5l-53 -86q9 5 29 16.5t28 14.5l9 2q8 0 8 -10t-8 -15q-15 -6 -68 -37q26 0 80 -8q14 -3 14 -16q0 -10 -10 -10h-4q-31 6 -92 10l41 -62l2 -8 q0 -8 -8 -8q-10 0 -15 8l-41 64l-67 -121q-5 -8 -13 -8t-8 10q0 6 2 10q50 97 51 99l-61 -39q-4 -4 -8 -4q-10 0 -10 10q0 9 8 12q2 1 10 6t22 14t27 17h-80q-14 0 -14 12z" />
<glyph unicode="+" horiz-adv-x="1046" d="M139 670q0 29 46.5 49t107.5 20q51 0 95.5 -17t66.5 -50l51 2l121 260q4 8 14 8t18.5 -5.5t8.5 -12.5l-109 -248q143 10 236 10q52 0 75 -2q17 -3 17 -12q0 -8 -13 -8l-81 4q-45 0 -244 -13q-8 -16 -34.5 -71.5t-37.5 -75.5q-7 -48 -44 -142.5t-66 -97.5h-5q-10 0 -14 13 v10q0 61 94 258l4 31q0 43 -12 67q-123 -10 -194 -10q-92 0 -99 20zM162 666q4 -11 71 -11q61 0 193 11q-36 55 -129 55q-51 0 -93 -16t-42 -35v-4zM465 649q8 -24 8 -39l21 41z" />
<glyph unicode="," horiz-adv-x="296" d="M0 35q0 4 6 10q25 16 38 31.5t19 38.5v2q0 4 -6 13.5t-6 19.5v6q6 22 29 30h6q10 0 20.5 -4t10.5 -10q-8 -99 -103 -141l-8 -2q-6 0 -6 6z" />
<glyph unicode="-" d="M82 596q0 14 10 14q3 1 15.5 4t25 5t21.5 2q13 0 20 -7q31 2 105 2q168 0 233 -16q12 -3 12 -14q0 -6 -4 -11.5t-10 -5.5h-4q-65 15 -199 15q-130 0 -205 -11h-2q-8 0 -13 7.5t-5 15.5z" />
<glyph unicode="." horiz-adv-x="337" d="M0 172q0 7 4 13t12 11.5t14 8.5t16.5 7t12.5 5h2q9 0 15 -10.5t6 -22.5q0 -31 -23 -34q-5 -1 -16 -5t-16 -4q-16 0 -25 23z" />
<glyph unicode="/" horiz-adv-x="894" d="M90 113l2 6q50 130 210.5 362.5t350 466t356.5 427t261 290.5q11 8 20 8q10 0 16.5 -8t6.5 -18q0 -11 -4 -15q-97 -100 -262.5 -287t-359.5 -420t-356.5 -462.5t-211.5 -356.5q-3 -8 -13 -8q-6 0 -11 4.5t-5 10.5z" />
<glyph unicode="0" horiz-adv-x="972" d="M0 438q0 213 109 520q118 316 294 472q28 26 54.5 38.5t42 15t16.5 3.5q116 104 195 104h12q184 -21 184 -291q0 -129 -35.5 -274t-68.5 -225q-133 -335 -299 -525q-144 -170 -277 -170l-28 3q-99 13 -149 99.5t-50 229.5zM45 426q0 -247 152 -285l32 -4q112 0 244 154 q77 92 156 232t137 296q37 98 71.5 238t34.5 258q0 230 -153 248h-6q-66 0 -162 -86h6q9 0 16 -7q9 -6 9 -10t-6.5 -8t-12.5 -4l-6 2q-16 4 -25 4h-6q-82 -76 -135 -162l2 -10q0 -27 -14 -41q-10 -15 -25.5 -32t-21.5 -17h-2q-4 4 -4 12q0 16 20 64q34 77 121 170 q-89 -57 -188.5 -232t-166.5 -393.5t-67 -386.5z" />
<glyph unicode="1" horiz-adv-x="587" d="M-49 68v10q60 173 102 286t116 295.5t163 362.5t194 358q-45 -35 -93.5 -56.5t-121.5 -45.5q-16 0 -20 22q0 14 10 17q22 6 45 15t39 16t41 23t35 22t37.5 26.5t32.5 24.5t36 29t33 26q13 10 29 10q25 0 28 -22l-4 -17q-423 -674 -671 -1402q-6 -15 -19 -15 q-5 0 -8.5 4.5t-3.5 10.5z" />
<glyph unicode="2" horiz-adv-x="1081" d="M-360 78q0 12 8 24.5t20 16.5q156 60 349.5 181.5t359.5 277.5q64 60 124 125.5t122 145t107 165t61 160.5q8 39 8 79q0 186 -230 201h-14q-88 0 -181 -56t-157 -134q-7 -7 -12 -7q-11 0 -21 9.5t-10 21.5q0 4 4 12q61 80 170.5 131.5t206.5 51.5h14q133 -6 197.5 -68.5 t64.5 -165.5q0 -39 -8 -75q-31 -154 -147.5 -319.5t-261.5 -303.5q-140 -134 -311.5 -254.5t-317.5 -196.5q183 25 338 25q171 0 395 -27q14 0 14 -14q0 -5 -4 -9.5t-10 -4.5h-2q-164 18 -313 18q-226 0 -525 -37h-8q-14 0 -22 8t-8 19z" />
<glyph unicode="3" horiz-adv-x="1028" d="M-111 231l2 29q7 83 49.5 168.5t92.5 130.5l8 4q10 0 10 -14q0 -4 -8 -12q-42 -40 -81 -120t-46 -157l-2 -27q0 -81 51.5 -132.5t165.5 -55.5q146 0 286.5 116t223.5 288q41 86 47 161l2 27q0 73 -41.5 116.5t-122.5 43.5q-38 0 -98 -13l-8 -2q-14 0 -14 17q0 19 22 28 q59 25 107.5 50t109 64t104.5 80t80 97t48 117q6 47 6 59q0 75 -49 110.5t-127 35.5q-92 0 -190.5 -41.5t-133.5 -95.5q-5 -19 -6 -37q-3 -11 -13 -18t-20 -7q-13 0 -22 7t-9 18v4q20 75 147.5 136.5t244.5 61.5q89 0 142.5 -41t53.5 -129l-2 -24q0 -22 -6 -43 q-47 -229 -371 -389q105 0 158 -58t53 -153l-2 -33q-2 -20 -14 -76q-34 -125 -123.5 -241.5t-211.5 -190.5t-239 -74q-131 0 -192.5 61t-61.5 154z" />
<glyph unicode="4" horiz-adv-x="833" d="M-106 684q39 61 161.5 226.5t235 324.5t151.5 238q3 4 17 35.5t30 58t31 26.5h2q19 -3 19 -22q0 -14 -9 -29q-1 -2 -5 -10.5t-5.5 -11.5t-5 -9.5t-6 -10t-6 -8t-7.5 -7t-8 -4.5q-45 -93 -145 -233.5t-228 -306t-163 -214.5q53 18 165 29.5t232 11.5q51 0 129 -4 q124 325 240 571q-17 0 -17 17q0 23 31 71.5t45 59.5q13 10 27 10q10 0 17 -8.5t7 -16.5l-2 -4q-194 -416 -313 -702q91 -10 117 -33q6 -6 6 -12q0 -8 -5 -14.5t-11 -6.5q-7 0 -9 2q-36 28 -106 41q-160 -391 -238 -663q-3 -13 -14 -13q-14 0 -14 17v4q127 394 231 661 q-65 7 -117 7q-162 0 -352 -37q-21 -3 -45.5 -11.5t-40.5 -15t-20 -6.5z" />
<glyph unicode="5" horiz-adv-x="1003" d="M-61 217q0 42 10 76q3 12 14 12q14 0 14 -14v-4q-10 -42 -10 -74l4 -39q13 -54 61.5 -83.5t119.5 -29.5q53 0 118 19q97 29 190 97t175 184.5t121 259.5q16 57 16 122q0 123 -68 200t-190 77q-154 0 -352 -131q-2 -2 -8 -2q-15 0 -15 14v2q8 74 98.5 265.5t153.5 291.5 h-4q-5 -5 -32.5 -11.5t-37.5 -6.5h-2q-12 0 -12 12q0 24 33 35q50 18 334 18q192 0 233 -12q10 -3 10 -12q0 -6 -4.5 -11.5t-11.5 -5.5h-4q-32 11 -156 11q-147 0 -286 -11q-42 -56 -137 -244.5t-121 -277.5q183 115 329 115q130 0 205.5 -86.5t75.5 -222.5q0 -64 -19 -138 q-31 -112 -87.5 -208t-126 -162.5t-144 -111.5t-150.5 -67q-61 -18 -122 -18q-94 0 -154.5 43.5t-60.5 128.5z" />
<glyph unicode="6" horiz-adv-x="747" d="M-160 360q0 161 76 361t218 394.5t315 322.5q99 73 165 88l7 2q9 0 15.5 -8t6.5 -17q0 -21 -25 -35q-18 -10 -71.5 -30.5t-89.5 -46.5q-122 -87 -245 -246t-210 -333t-111 -310q-14 -82 -14 -150q0 -213 139 -258q38 -12 74 -12q71 0 137.5 42t116 109t86 144t55.5 155 q17 83 17 132q0 171 -119 206q-46 11 -70 11q-76 0 -146 -46.5t-118.5 -117t-80.5 -149t-42 -148.5q0 -14 -10 -14q-6 0 -6 10v4q10 77 43 160t83 156t121.5 120t149.5 47q33 0 84 -14q78 -26 113 -92.5t35 -153.5q0 -56 -13 -113q-25 -112 -84.5 -218.5t-153.5 -182.5 t-196 -76q-40 0 -84 15q-85 27 -126.5 103t-41.5 189z" />
<glyph unicode="7" horiz-adv-x="868" d="M-102 92l2 6q155 350 487 783q-108 -8 -223 -37h-4q-15 0 -15 14q0 11 11 14q1 0 22 6.5t29 6.5t8 -4v-4q96 23 195 32q10 15 14 19q342 437 516 547h-31q-140 0 -362.5 -28.5t-315.5 -57.5l2 -11q0 -10 -12.5 -18.5t-46.5 -20.5q-16 -4 -22 -4q-21 0 -35.5 10t-14.5 29 q0 16 15 37q23 34 186 56t325.5 29t311.5 7h68q14 0 14 -14q0 -8 -6 -14q-102 -51 -252.5 -203.5t-314.5 -360.5l45 2q74 0 129 -18q10 -3 10 -12q0 -6 -5 -11.5t-12 -5.5h-4q-53 19 -145 19h-41q-155 -202 -288 -412t-212 -387q-3 -8 -12 -8q-16 0 -16 14z" />
<glyph unicode="8" horiz-adv-x="1054" d="M-119 268q0 47 29 113q30 63 77 120.5t110.5 109t123.5 92t144 90.5q-74 94 -116 174t-42 159q0 59 31 119q55 105 219 190t307 85q86 0 142 -35.5t67 -110.5l4 -41q0 -102 -63.5 -222.5t-145.5 -207.5q-4 -4 -10 -4t-11.5 4t-5.5 10q0 3 4 11q80 84 144.5 199.5 t64.5 211.5q0 25 -2 37q-17 119 -172 119q-85 0 -188.5 -38t-189 -99t-119.5 -125q-27 -55 -27 -109q0 -70 38.5 -143t108.5 -160q2 1 34 21.5t59 35.5q-11 4 -11 11t15 18q23 12 65 21l13 2q26 0 26 -15q0 -10 -16 -20l-164 -98q17 -20 66 -77t73.5 -88.5t57.5 -80 t48 -89.5t15 -79q0 -32 -12 -62q-53 -125 -187 -194.5t-284 -69.5q-85 0 -157 23.5t-114 68.5q-49 52 -49 123zM-88 270q0 -88 82.5 -137t206.5 -49q90 0 177 26t160.5 83t106.5 135q8 19 8 45q0 35 -17 75t-49.5 83.5t-62.5 78.5t-74 84t-67 76q-175 -105 -283 -195.5 t-163 -205.5q-25 -58 -25 -99z" />
<glyph unicode="9" horiz-adv-x="804" d="M184 973v8q0 92 82.5 209.5t202.5 208.5q66 53 142 89t143 36q136 0 178 -133l2 -7q0 -26 -23 -26q-17 0 -28 24q-32 91 -127 91q-54 0 -119 -29t-121 -70q-123 -94 -212 -206t-89 -193v-4q11 -48 29 -66t59 -18q86 0 227 86q162 94 357 284q13 13 24 13q9 0 16 -7.5 t9 -15.5l-2 -8q-166 -270 -290.5 -556t-237.5 -634q-7 -10 -15 -10q-16 0 -16 16v4q213 656 477 1104q-31 -26 -64 -52t-103.5 -76t-131 -86t-131.5 -64.5t-121 -28.5q-85 0 -111 78q-6 18 -6 39z" />
<glyph unicode=":" horiz-adv-x="405" d="M147 399q0 7 4 13t12.5 11.5t14.5 8.5t16.5 7t12.5 5h2q10 0 16 -9.5t6 -22.5q0 -31 -24 -37q-4 -1 -15 -3.5t-16 -2.5q-19 0 -26 22zM248 651q0 5 2 9t6 7.5t7.5 6.5t10 5.5t10 4t9.5 3.5t8 3h2q9 0 14 -8.5t5 -19.5q0 -27 -21 -33l-29 -6q-13 0 -22 20z" />
<glyph unicode=";" horiz-adv-x="333" d="M98 315q0 8 13 21q28 32 32 57v4q0 3 -6 9t-6 14l2 8q3 11 11 19t16 10h4q9 0 20 -11.5t11 -19.5q-3 -37 -25.5 -66.5t-48.5 -44.5q-9 -6 -17 -6q-6 0 -6 6zM227 670v4q0 11 13.5 20.5t29.5 12.5h2q12 0 20.5 -10t8.5 -21q0 -16 -18 -21q-3 -1 -15 -4.5t-18 -3.5 q-17 0 -23 23z" />
<glyph unicode="&#x3c;" horiz-adv-x="632" d="M152 485q0 10 6 13q91 58 225.5 126t245.5 111l8 2q15 0 18 -16v-4q0 -18 -14 -23q-206 -82 -444 -209q141 -61 305 -149q6 -3 6 -14v-7q-4 -8 -14 -8l-7 2q-6 3 -43.5 24t-48.5 27t-44 23t-50 25.5t-44.5 21.5t-50.5 22.5t-46 18.5q-8 5 -8 14z" />
<glyph unicode="=" horiz-adv-x="755" d="M139 467q0 9 13 12q52 8 198 8q189 0 254 -16q12 -3 12 -14q0 -5 -4 -10t-10 -5h-4q-80 21 -281 21q-99 0 -161 -8h-4q-13 0 -13 12zM219 647q0 12 12 12q73 13 220 13q131 0 196 -15q10 -3 10 -14q0 -14 -14 -14h-4q-63 14 -215 14q-25 -1 -71 -1t-74.5 -1t-45.5 -4h-2 q-12 0 -12 10z" />
<glyph unicode="&#x3e;" horiz-adv-x="669" d="M61 334q0 7 11 10q54 14 148.5 52t209.5 88t164 69q-122 53 -418 160q-10 3 -10 14q0 14 14 14h6q36 -13 140 -50t181 -65.5t128 -52.5q10 -7 10 -20t-16 -18q-58 -20 -251 -101t-298 -108h-6q-13 0 -13 8z" />
<glyph unicode="?" horiz-adv-x="1069" d="M94 182v4q3 39 53 39q11 -3 19 -12.5t8 -19.5v-5q-1 -10 -13 -20.5t-22 -13.5l-14 -2q-31 0 -31 30zM178 365v4q11 37 63.5 97.5t128 131t165 150.5t176 164.5t158 164.5t115.5 159t44 140q0 28 -8 49q-17 45 -63 68t-109 23q-97 0 -200.5 -49t-155.5 -126l2 -18 q0 -41 -33 -53l-15 -2q-30 0 -30 24l2 13q28 73 100.5 130t158.5 86t169 29q79 0 134.5 -29.5t72.5 -88.5q6 -24 6 -50q0 -70 -44 -154t-115.5 -166t-158.5 -166.5t-176 -163.5t-164.5 -147.5t-129 -128t-64.5 -96.5q-3 -10 -14 -10q-15 0 -15 15z" />
<glyph unicode="@" horiz-adv-x="1101" d="M131 360q0 123 55 242q48 105 118 187.5t148 132.5t158 76t156 26q89 0 159.5 -35t108.5 -100q33 -61 33 -131q0 -122 -90 -271q-49 -82 -122.5 -130t-137.5 -48l-25 2q-63 13 -63 86q0 48 26 115q-43 -60 -88.5 -100.5t-81.5 -40.5l-16 2q-31 11 -31 51q0 67 69 165.5 t130 117.5q6 2 18 2q45 0 68 -45q5 8 12.5 17.5t7.5 10.5q7 10 19 10q16 0 16 -16v-2q-1 -9 -32 -63t-60 -120t-29 -106q0 -50 45 -55h13q59 0 129 45q67 50 108 117q86 146 86 258q0 111 -75 172t-193 61q-96 0 -194.5 -41t-194.5 -135t-158 -227q-57 -123 -57 -236 q0 -133 79 -218.5t234 -92.5h13q108 0 219.5 52.5t214.5 158.5q11 16 22 16q6 0 10.5 -5.5t4.5 -12.5q0 -15 -11 -23q-108 -110 -227 -163.5t-233 -53.5h-13q-172 6 -260 103t-88 245zM481 436q0 -17 11 -20l6 -2q23 0 67 47t75 90t54 80q-11 33 -39 33q-31 0 -73.5 -44.5 t-71.5 -99t-29 -84.5z" />
<glyph unicode="A" horiz-adv-x="2168" d="M0 623v4q3 36 53 62.5t115.5 38t132.5 11.5h18q306 -6 525 -116q56 72 189 230t336 385.5t396 426.5t368 341t253 142q20 0 33 -10q24 -15 24 -53q0 -41 -24.5 -120t-85.5 -245q-80 -223 -238 -619.5t-172 -438.5l281 24q54 6 69 6q78 0 78 -41q0 -12 -10 -35 q-3 -10 -19 -10h-6q-18 4 -18 21l2 8q2 7 6 11.5t7 6t3 2.5l-2 2q-10 5 -35 5q-19 0 -60.5 -4t-49.5 -5q-185 -15 -258 -24q-230 -597 -338 -996q-9 -26 -29 -26q-18 0 -24 16q-38 73 -97 196.5t-102.5 208.5t-102 185.5t-127 181.5t-147.5 142l-143 -5q-58 -78 -117 -160.5 t-136.5 -201t-135 -220t-98 -202t-40.5 -162.5v-6q0 -6 13 -45l2 -4q0 -9 -15 -14l-8 -2q-9 0 -12 10q-8 19 -8 51q0 80 55.5 208t148 274t166.5 253t156 217q-282 -10 -354 -10q-94 0 -180 6q-238 18 -238 99zM29 623q0 -28 64 -47.5t149 -26.5q80 -6 159 -6 q76 0 217.5 6.5t176.5 7.5q2 3 36 51q-217 106 -516 109h-10q-86 0 -178.5 -24t-97.5 -68v-2zM825 561l82 4l-55 31zM864 612q63 -33 80 -43q183 9 375 26.5t270.5 27t265.5 32.5l422 1094q109 284 109 332q0 15 -8 18l-13 2q-55 0 -216.5 -137t-356.5 -335.5t-394 -413.5 t-343 -379t-191 -224zM985 539q76 -56 159.5 -160.5t147 -208t123.5 -217t88 -173.5t41 -91q10 61 108.5 367.5t188.5 561.5q-439 -53 -856 -79z" />
<glyph unicode="B" horiz-adv-x="2013" d="M0 0l4 39q13 82 55 197q115 322 291 642t383 564q16 31 59.5 115t59 113t49.5 92t54 96.5t49 79t57 83.5q8 13 8 23l-2 14l2 8q3 17 45 56q20 14 37 14q33 0 33 -49q0 -33 -15 -51q-7 -9 -45 -58.5t-49 -64.5t-44 -61t-53 -78t-50 -83t-60 -106q63 68 146 141.5 t191.5 154t226 132t213.5 51.5q93 0 163 -53q78 -61 78 -153q0 -218 -407 -588q-168 -152 -383 -303q145 24 268 24q43 0 82.5 -3t65 -7t44.5 -8t29.5 -7t11.5 -3t16.5 6t42 14.5t57.5 17.5t69 15t71 6q127 0 160 -92v-4q0 -7 -11.5 -14t-23.5 -7q-19 0 -24 19q-2 6 -2 18 q0 15 -4 19q-16 27 -82 30h-11q-88 0 -215 -45q193 -81 193 -284l-2 -39q-11 -131 -83 -266t-182 -247t-242.5 -204t-273.5 -149.5t-266 -71.5q-50 -4 -73 -4q-156 0 -252 75q-70 54 -70 142q0 127 137 297q162 206 448 417.5t554 321.5q-75 16 -150 16q-127 0 -368 -49 q-102 -69 -246 -135q-88 -39 -131 -39q-33 0 -41 18q-4 6 -4 19q0 43 96 88q45 23 138 51.5t202 50.5q242 162 434 338q379 341 379 543q0 83 -70 139q-51 39 -125 39q-78 0 -180.5 -45t-197.5 -111t-191.5 -148t-164.5 -150.5t-115 -122.5q-169 -337 -411.5 -865.5 t-287.5 -607.5q-15 -31 -41 -31h-6q-13 3 -21 6.5t-17 19.5t-9 42zM25 -6q0 -39 22 -39h2q23 0 121.5 225.5t244.5 571t236 526.5q-155 -196 -312 -493t-253 -562q-2 -6 -13.5 -39.5t-21 -63t-18 -66.5t-8.5 -60zM414 -111q0 -72 57 -118q98 -76 236 -76q37 0 77 6 q171 27 348 124.5t312 226.5t225.5 278.5t102.5 277.5q2 18 2 54q0 198 -193 264q-267 -104 -564.5 -319t-467.5 -431q-135 -174 -135 -287zM616 764l2 -4q3 -6 15 -6q41 0 119 39q84 39 188 106q-1 0 -20.5 -5t-43.5 -12t-54 -15.5t-63 -20t-59 -23.5q-84 -39 -84 -59z" />
<glyph unicode="C" horiz-adv-x="1589" d="M0 193q0 228 87.5 486t197.5 425q75 115 167.5 226t207.5 217.5t233 186t250.5 128.5t255.5 49l37 -2q65 -4 115 -42.5t77 -99.5q29 -62 29 -145q0 -88 -29.5 -194.5t-70.5 -191.5t-81.5 -148t-64.5 -78l-8 -2q-18 0 -35.5 10t-17.5 31q0 28 34 65q4 4 13 4q10 0 12 -4 q40 70 77 147t74 192.5t37 197.5q0 179 -170 198q-18 2 -53 2q-112 0 -235.5 -47t-235.5 -124.5t-222.5 -180t-200.5 -209.5t-165 -217q-109 -161 -197.5 -416t-88.5 -479q0 -183 72.5 -313.5t232.5 -183.5q59 -19 112 -19q113 0 250 62.5t260.5 155t250 212t216 219.5 t160.5 191q9 12 23 12l6 -2q4 -4 4 -10q0 -9 -8 -17q-65 -93 -158.5 -200t-219 -222.5t-253.5 -208t-269 -152.5t-259 -60q-66 0 -125 20q-324 108 -324 531z" />
<glyph unicode="D" horiz-adv-x="1986" d="M0 -76q94 362 305 869q241 592 537 1103q8 16 8 31l-2 27q0 13 6 28q23 58 98 150.5t88 112.5q18 18 43 18l15 -4q8 -5 8 -18q0 -15 -4 -23q-303 -466 -498.5 -885t-382.5 -964q45 97 94 196.5t120 233t144 257t163.5 260t180.5 252t193.5 223.5t203.5 184t209.5 123.5 t213.5 51.5h18q318 0 318 -417q0 -131 -31.5 -295t-78.5 -309.5t-94.5 -263.5t-86.5 -189h35q191 0 243 -64l5 -10q0 -6 -7 -10q-4 -4 -10 -4t-12 6q-47 63 -225 63h-39q-98 -176 -219.5 -330.5t-267 -285.5t-319.5 -222t-356 -124q-68 -12 -118 -12q-169 0 -217 104 q-15 30 -15 70q0 100 87 219t239 213q251 157 567.5 262.5t585.5 120.5q49 89 112 255t119 396.5t56 400.5q0 379 -271 379h-16q-128 -5 -266.5 -79.5t-261 -189t-249 -273.5t-228 -314.5t-201 -331t-164.5 -305t-123 -254.5q-76 -161 -189 -446q-8 -16 -30 -16q-11 0 -15 2 q-18 7 -18 22v6zM285 -137q0 -38 14 -70q39 -88 201 -88q60 0 112 10q176 33 343.5 121.5t308.5 217.5t258.5 278t214.5 321q-262 -20 -573.5 -124.5t-563.5 -254.5q-68 -41 -136.5 -103.5t-123.5 -148t-55 -159.5z" />
<glyph unicode="E" horiz-adv-x="1730" d="M0 -31q0 80 42.5 174.5t113 185.5t162 184t189 174t194.5 152t177.5 121.5t139.5 79.5q-66 -4 -119 -4q-77 0 -147 8t-141.5 28t-119.5 60t-59 97q-4 28 -4 43q0 88 69.5 182t181.5 174t253.5 152.5t284.5 123.5t276.5 81t228.5 30q40 0 70 -6q113 -19 113 -137 q0 -77 -46.5 -182t-98 -176.5t-74.5 -79.5l-9 -2q-7 0 -13.5 5.5t-6.5 16.5v4q3 27 18 71.5t29 63.5q6 9 21 18t22 9l4 -2l-2 -4q106 163 106 250q0 80 -92 96q-30 6 -69 6q-90 0 -217 -28t-262.5 -75.5t-269 -115t-238.5 -142t-170.5 -161.5t-65.5 -168q0 -15 4 -39 q9 -48 49 -82.5t101 -52.5t125.5 -25.5t138.5 -7.5q135 0 229 16h4q8 0 16 -6.5t11 -15.5l2 -10q0 -20 -23 -29q-69 -26 -174.5 -87.5t-228.5 -146.5t-246 -190.5t-223 -211.5t-162.5 -218t-62.5 -203q0 -63 28 -112q59 -103 207 -103q124 0 312.5 72t359 166.5t357 215 t282 188.5t158.5 116q4 4 10 4l6 -2l2 -6q0 -7 -8 -12q-54 -40 -103.5 -76.5t-170 -120t-226.5 -151t-250.5 -149.5t-265.5 -138t-247.5 -94.5t-219.5 -38.5q-165 0 -229 114q-33 59 -33 129z" />
<glyph unicode="F" horiz-adv-x="1075" d="M-115 1645q0 41 43 71q84 54 325.5 105.5t520 84.5t515 54t366.5 25h104q417 0 457 -93l2 -18q0 -19 -13 -37t-28 -18q-11 0 -16.5 3.5t-8 8t-7 19.5t-9.5 26q-31 80 -405 80h-50q-503 -15 -1045 -96.5t-687 -169.5q-29 -14 -29 -43q0 -7 4 -15t9 -15t14 -15t15.5 -13 t18.5 -13t17 -11.5t17 -10.5t14 -8q54 -31 86 -50.5t90 -62.5t96 -82.5t85.5 -103.5t76.5 -132.5t52 -162.5t28 -200q116 258 275 570t245 419q5 8 18 8q14 0 25.5 -8t11.5 -21v-10q-74 -274 -153 -276h-4q-32 -58 -115.5 -197t-154 -266.5t-126.5 -249.5l187 2q96 0 143 -2 q12 0 12 -12q0 -15 -16 -15q-192 8 -234 8l-100 -2l-6 -14q-2 -162 -34 -368t-89 -390q-91 -291 -172 -293q-30 3 -42 21t-13 65v9q0 158 155 567q44 115 166 401q-61 -4 -194 -26q-16 -21 -43 -21q-17 0 -17 15q0 18 13 24q39 19 243 29q0 109 -20.5 206.5t-50 168.5 t-77.5 138t-88 108.5t-98.5 85t-90.5 63t-81 47.5q-6 4 -30 17t-36.5 20.5t-30 20t-26 25.5t-10.5 26zM223 -262v-8q0 -49 25 -68l10 -2q30 1 73 99.5t62 166.5q50 155 87 354t44 357q-301 -703 -301 -899z" />
<glyph unicode="G" horiz-adv-x="1607" d="M-37 637l2 29q9 99 83.5 240.5t190 289.5t266.5 295.5t307 262.5t319 187t294 72l50 -2q94 -10 138 -70.5t44 -150.5l-2 -41q-3 -46 -19 -96q-10 -31 -21.5 -42.5t-29.5 -11.5q-20 0 -33.5 11t-13.5 32v7q23 93 27 123v22q0 120 -115 133l-45 2q-128 0 -286 -73 t-307.5 -188.5t-294.5 -261t-254.5 -288.5t-180 -272t-78.5 -211l-2 -21q0 -36 21 -61q37 -43 100 -49h18q100 0 259.5 83.5t326 204t326 242.5t295 213t198.5 101l23 4l16 -2q70 -6 80 -84l2 -43v-19q-12 -120 -108 -330q24 -12 42.5 -36.5t18.5 -53.5v-6q-2 -14 -4.5 -19 t-11.5 -5h-5q-12 0 -12 10v18q0 40 -39 70q-30 -62 -82 -153t-126 -209.5t-156.5 -238t-177 -235t-183 -205t-178 -144t-160.5 -54.5h-4q-66 0 -102.5 53t-36.5 123v23q9 93 78 214t171 238t228.5 232t248.5 201.5t232.5 140t178.5 53.5h14l23 -4q89 187 98 284v19 q0 78 -62 84q-20 0 -32 -2q-59 -9 -164.5 -72.5t-222 -151t-257 -188t-267.5 -185t-254 -140.5t-216 -56h-22q-67 6 -113 49q-41 41 -41 109zM360 -195v-20q0 -62 30 -105t83 -49h14q67 0 152.5 54.5t170 143t174.5 204t168.5 234t150.5 237t121.5 209t80.5 153.5 q-14 4 -28 4q-63 0 -170.5 -53t-227 -139t-245 -200t-227 -230t-170.5 -234.5t-77 -208.5z" />
<glyph unicode="H" horiz-adv-x="2414" d="M0 866q0 125 219 289q108 81 230 132.5t221 51.5q44 0 82 -12q231 -75 297 -493q240 23 321 32q261 742 414 1049q-67 -118 -120.5 -231.5t-53.5 -147.5l2 -12q0 -8 -6 -8q-8 0 -15 14l-2 12q0 61 104 278t158 289q31 39 60 39q14 0 26 -6q39 -16 39 -45q0 -24 -20 -49 q-85 -122 -277 -549t-266 -629q493 48 789 66q121 355 260.5 691t224.5 491q5 8 12 8h6q11 -6 11 -12l-2 -7q-77 -139 -208 -468t-259 -701q290 16 344 16q89 0 135 -14q28 -8 41.5 -21.5t13.5 -25.5q0 -6 -4 -14q-4 -5 -13 -12t-14 -7q-14 0 -14 19l2 10q0 17 -20 24 q-50 15 -135 15q-37 0 -345 -17q-158 -463 -217 -679q-81 -292 -86 -449q0 -14 -8 -14q-12 0 -12 18q12 351 278 1122q-342 -17 -788 -61q-100 -282 -144.5 -411t-114.5 -346.5t-126 -416.5q-4 -48 -22.5 -130t-39.5 -122q-5 -9 -16.5 -17.5t-21.5 -8.5q-18 0 -21 26v5 q0 30 17 88.5t40 107.5q95 442 95 846q0 165 -23 344q-20 -2 -127 -16t-203.5 -25.5t-226.5 -22t-225 -10.5l-60 2q-168 9 -184 105zM39 870l2 -16q14 -80 145 -84l60 -2q59 0 139 4t151.5 9.5t159 13.5t140 13.5t118.5 12.5t72 8q-64 404 -276 476q-33 10 -68 10 q-91 0 -214 -52.5t-232 -132.5q-89 -67 -143 -135.5t-54 -124.5zM1022 -170q157 506 338 1012q-172 -13 -307 -27q20 -151 20 -340q0 -311 -51 -645z" />
<glyph unicode="I" horiz-adv-x="1257" d="M0 -264q0 16 14 18q54 13 230 30.5t366 27.5v4q8 187 455 1065q59 190 65 333v35q0 93 -23.5 166.5t-61.5 117.5t-87 77.5t-100 49.5t-100 30t-87 23t-61.5 25t-23.5 38v2q3 41 150.5 82t350 69t356 44.5t224.5 21.5q36 59 64 84q7 10 20 10q18 -3 18 -16q0 -8 -6 -17 q-4 -8 -19.5 -25.5t-25.5 -31.5q120 8 258 8q357 0 408 -76q2 -4 2 -10q0 -10 -12 -18q-10 -5 -13 -5q-9 0 -12 9l-7 13q-7 14 -18 19q-103 50 -387 50q-111 0 -231 -9q-164 -247 -598 -1112q-24 -143 -154.5 -470t-236.5 -543q-7 -14 -25 -41q82 4 119 4q193 0 301.5 -9.5 t149.5 -37.5q6 -6 6 -11q0 -6 -4 -10q-6 -6 -13 -6l-8 2q-70 55 -377 55q-64 0 -186 -4q-19 -21 -37 -30q-12 0 -18 4q-12 3 -15 22q-182 -10 -426 -37q-60 -7 -166 -30q-16 0 -18 10zM616 1778q0 -20 43.5 -33.5t104 -23.5t139 -44t133.5 -88q133 -133 133 -342l-2 -39 q-3 -76 -24 -176q33 63 114.5 220t119 228t96 181t100.5 182.5t78 128.5q-95 -7 -220.5 -20t-328 -38t-340 -60t-146.5 -72v-4zM629 -188l41 2q14 21 28 49q80 168 175.5 425t146.5 431q-375 -767 -391 -907zM631 -205v-4q0 -4 4 -4h2q2 0 18 8h-24z" />
<glyph unicode="J" horiz-adv-x="1589" d="M0 358q0 55 41.5 152t112.5 214.5t169 250.5t208 262t233.5 247.5t241 208.5t234.5 143.5t210 53.5q66 0 125 -30q113 -62 113 -250q0 -59 -10.5 -127.5t-31.5 -143t-40 -135.5t-50 -139.5t-47.5 -117.5t-45.5 -105.5t-31 -71.5q82 -57 84 -152q0 -8 -1 -13.5t-4.5 -8.5 t-5 -3.5t-7.5 -1.5l-5 -1h-2q-15 0 -18 14l2 51q-7 49 -58 86q-28 -66 -77 -164.5t-125 -236t-160 -275.5t-183.5 -275t-195 -242t-196 -170.5t-183.5 -65.5q-41 0 -66 10q-67 23 -67 111q0 94 71.5 242.5t192.5 318.5q50 71 125 164t181 207.5t209 208t211 157.5t185 64 q30 0 54 -9q258 588 258 854q0 153 -86 191q-47 20 -107 20q-121 0 -282 -90t-316.5 -230t-309 -312t-269 -335t-187 -300.5t-71.5 -206.5q0 -22 10 -39q3 -6 12 -6q13 0 78 24q13 13 27 13q11 0 17.5 -10t6.5 -23q0 -25 -14 -31q-50 -20 -86 -20q-53 0 -68 41q-6 15 -6 32z M197 -571q0 -61 45 -78q27 -10 53 -10q102 0 240.5 125t266.5 303.5t253 386t205.5 361.5t117.5 241q-21 8 -51 8q-75 0 -178 -64t-199.5 -156t-197 -207t-169.5 -205.5t-118 -162.5q-268 -389 -268 -542z" />
<glyph unicode="K" horiz-adv-x="2058" d="M0 -395l2 6q184 388 410 899q-121 -45 -174 -45t-58 35v8q0 57 133 57q41 0 121 -8q91 206 133 299.5t119.5 257.5t135 269t139.5 242.5t172 268.5l18 29q0 4 -4 4q-7 0 -23 -16q-46 -46 -127 -168t-123 -215q-2 -4 -2 -12l2 -17l-2 -8q-3 -6 -12 -6q-6 0 -10 4l-2 8 q0 28 20 68q56 117 139.5 252.5t122.5 162.5q21 21 46 21q16 0 30 -8t17 -17l2 -10q0 -23 -47 -96q-209 -308 -356 -589t-339 -710q222 94 485 250.5t518.5 340.5t480 361t431.5 357q13 10 25 10t20 -7.5t8 -16.5q0 -15 -18 -27q-6 -5 -28.5 -17.5t-32.5 -21.5 q-210 -178 -429 -347t-463 -339t-498 -317t-482 -246q304 -50 692 -189q62 -22 155.5 -69t201 -110.5t204 -144t141.5 -153.5q4 -7 12.5 -19t10.5 -15.5t6 -11.5t5 -12t2 -11t1 -15v-12q0 -27 -12 -41t-27 -14q-18 0 -24 16q-16 46 -27 96q-27 92 -128.5 185.5t-235.5 167.5 t-301 139q-338 130 -711 186q-3 -2 -83 -175t-193 -420t-136 -296q-4 -7 -5 -20t-9 -21q-2 -4 -10 -4q-13 0 -21 4t-8 13zM209 504q0 -12 24 -12q49 0 156 40q-2 0 -30.5 2.5t-49.5 2.5q-100 0 -100 -31v-2z" />
<glyph unicode="L" horiz-adv-x="1265" d="M0 -293q0 29 12 76q44 156 140 403.5t221 493.5q214 423 453.5 823.5t355.5 526.5q25 28 47 28q11 0 20 -6q17 -8 17 -33q0 -16 -8 -39t-35 -70.5t-46 -78.5t-71 -117q-24 -43 -106.5 -180.5t-125.5 -218.5q-102 -194 -258.5 -433t-203.5 -274q-82 -136 -196.5 -404.5 t-158.5 -430.5q-12 -43 -12 -74q0 -27 12 -29l31 -2q75 0 259.5 46.5t372.5 102t398.5 102t331.5 46.5q44 0 78 -6q12 0 12 -14q-4 -15 -14 -15h-4q-40 7 -78 7q-120 0 -327 -48t-392 -105t-370 -105t-267 -48q-17 0 -41 4q-47 10 -47 72zM479 748q97 131 178 262.5 t183 312.5q37 66 172.5 301t206.5 369q-79 -76 -299 -444t-441 -801z" />
<glyph unicode="M" horiz-adv-x="3094" d="M0 -231q0 110 104 356q325 752 1043 1440q35 117 35 223q0 89 -33 127q-4 4 -8 4q-8 0 -30.5 -12t-31.5 -15l-18 -4q-21 0 -35 13.5t-14 31.5q0 27 30 43q31 19 60 19q18 0 53 -15q62 -30 62 -155q0 -96 -33 -226q456 420 893 457l39 2q266 0 266 -329q0 -120 -35 -278 t-90.5 -310t-101.5 -262.5t-89 -198.5q114 156 223.5 264t191.5 155.5t142 47.5q32 0 56 -17q43 -32 43 -114q0 -53 -19.5 -137.5t-39 -146t-60.5 -183.5q-41 -121 -60 -180.5t-39 -141.5t-20 -127q0 -58 31 -69q15 -6 31 -6q166 0 565 483q6 6 12 6q4 0 6 -2q4 -4 4 -8 l-4 -10q-3 -4 -35 -41.5t-48 -56t-54 -61.5t-63 -69t-65.5 -66.5t-70.5 -66t-68.5 -55.5t-69 -47.5t-63 -29t-59.5 -11.5q-21 0 -39 6q-49 17 -49 104q0 114 115 453q43 128 62 186.5t41 146t22 134.5q0 64 -33 78q-8 4 -24 4q-162 0 -641 -629q-1 -2 -17.5 -48t-34.5 -86 t-51.5 -84.5t-71.5 -61.5q-10 -7 -26 -7q-29 0 -29 27q0 15 8 31q60 148 215 346q37 75 71 147.5t94 215t102.5 264.5t75 264t32.5 245q0 283 -229 283l-39 -2q-221 -21 -460.5 -152.5t-467.5 -347.5q-32 -118 -120 -333.5t-213 -469t-257 -481.5t-266.5 -383t-226.5 -162 h-6q-70 0 -70 91zM27 -238q0 -61 41 -61h4q71 4 173.5 112.5t208 277t214.5 371.5t200 400.5t158 360.5t94 254q-310 -304 -579 -672.5t-424 -732.5q-90 -217 -90 -310z" />
<glyph unicode="N" horiz-adv-x="1689" d="M0 -2q35 170 322 758q341 702 552 1048q0 1 1 15.5t4 27.5t10 17l12 4q17 0 17 -43l-3 -47q-6 -42 -44.5 -264.5t-74.5 -441.5t-67 -496.5t-31 -464.5q0 -396 136 -396h12q77 10 179 128t204.5 298.5t187.5 356.5t158 350q131 316 219.5 593.5t97.5 407.5q0 11 -9.5 30 t-10.5 24v6q0 21 12 34t27 13q31 0 37 -43l2 -25q0 -216 -348 -1052q-36 -86 -76 -175t-97 -205.5t-112.5 -220t-121 -207t-125.5 -177.5t-122 -120t-114 -46q-23 0 -46 10q-129 59 -129 475q0 156 21 377q27 302 82 631t102 542q-221 -377 -518 -970q-114 -228 -193 -434 t-100 -326q-3 -13 -22 -13q-11 0 -21 6t-10 13v2z" />
<glyph unicode="O" horiz-adv-x="1316" d="M0 49q0 169 51 368.5t109 348.5q-29 57 -29 133q0 155 97 354t206 334q126 158 284 252t331 94l55 -2q303 -27 303 -399q0 -126 -34.5 -284.5t-88.5 -304.5t-104 -260.5t-95 -197.5q-123 -224 -262.5 -402.5t-289.5 -289t-275 -110.5q-43 0 -74 10q-184 58 -184 356z M29 27q0 -265 161 -314q33 -10 66 -10q118 0 262 111t278 287.5t253 396.5q44 81 94 194t105 259t90.5 303.5t35.5 281.5q0 343 -274 367l-51 2q-165 0 -320.5 -91t-279.5 -243q-102 -124 -197.5 -323t-95.5 -349q0 -59 18 -108q78 193 160.5 361t198.5 338.5t227 254.5 q14 12 43 12q22 0 28 -6q21 -15 21 -35q0 -18 -25 -39q-6 -4 -18 -4h-12q-12 0 -21 -6q-156 -153 -317.5 -412.5t-259.5 -504.5q16 -25 28 -29q9 -3 9 -12q0 -8 -3 -11q-4 -4 -14 -4q-8 0 -10 2q-5 2 -13.5 13t-9.5 12q-33 -87 -63 -182.5t-62 -247t-32 -264.5z" />
<glyph unicode="P" horiz-adv-x="2220" d="M0 1282l4 31q6 28 68.5 67.5t117.5 64.5t109 46q224 83 513.5 154t559.5 98q83 139 127 178q10 10 29 10q28 0 28 -24v-9q-10 -46 -65 -147q83 6 164 6q70 -1 135.5 -5.5t143 -17t143 -31t128.5 -50t107 -72t71 -99t27 -128.5q0 -74 -30 -166q-58 -166 -174 -305.5 t-257 -233t-304.5 -159.5t-318 -95.5t-294.5 -29.5q-110 0 -192 18q-28 7 -52 16q-287 -651 -303 -770q-2 -12 -16 -12q-6 0 -10 5t-4 11q12 74 91.5 293t194.5 492q-109 54 -120 133l-3 16q0 24 17 35l8 2q8 0 16 -8t11 -18q11 -75 88 -121q135 313 192 432 q257 561 404 819q-306 -39 -613.5 -136t-582.5 -245q-26 -13 -55 -47t-35 -37q-20 -10 -33 -10q-35 0 -35 49zM805 436l51 -12q69 -14 170 -14q111 0 233.5 20t253.5 59.5t257.5 105t237.5 149.5t201.5 201t141.5 253q33 88 33 164q0 85 -43.5 151.5t-111.5 107t-161 66.5 t-182 36t-184 10h-51q-29 -1 -176 -11q-1 -3 -41 -75q-195 -346 -234 -381q-161 -302 -395 -830zM1214 1317q80 130 228 401l-25 -2q-88 -164 -203 -399zM1436 1747q6 2 22 2q72 141 76 152q-15 0 -98 -154z" />
<glyph unicode="Q" horiz-adv-x="1650" d="M0 6q0 15 12 21q35 14 88 14q88 0 219 -35q-4 62 -4 94q0 165 45.5 371t122.5 401.5t169.5 365t195 281.5t190.5 132q171 193 348 204h25q93 0 160 -30q178 -78 178 -355q0 -179 -77 -420t-197 -471.5t-273.5 -439.5t-300.5 -334q59 -21 117 -45q272 -101 443.5 -155 t252.5 -54q6 0 11.5 -5t5.5 -11t-5.5 -10t-11.5 -4q-45 0 -115.5 16t-159.5 45.5t-156 53.5t-159.5 59.5t-115.5 44.5l-127 49q-160 -129 -287 -129q-28 0 -55 6q-178 49 -215 303q-138 31 -209 31q-54 0 -86 -14q-2 -2 -9 -2q-15 0 -18 12q-2 4 -2 10zM362 55l3 -61 q189 -54 499 -174q192 158 389 455t327 628.5t130 566.5q0 160 -67.5 254t-210.5 103h-21q-169 0 -334 -172q13 0 27.5 -7t15.5 -18v-2q0 -8 -14 -12q-2 0 -18 -3t-32 -6.5t-24 -7.5q-123 -142 -206 -328t-83 -358l2 -49l3 -16q0 -16 -15 -19q-6 0 -12 39l-2 41 q0 149 77.5 338.5t192.5 335.5q-72 -51 -159 -176.5t-168.5 -294t-149.5 -352.5t-109 -372t-41 -333zM369 -43q26 -216 178 -258q21 -6 47 -6q112 0 248 108q-297 109 -473 156z" />
<glyph unicode="R" horiz-adv-x="1789" d="M0 -227q0 31 9 82.5t23 106t27 101.5t24.5 85t12.5 40q20 66 117 455q-62 32 -115 49q-10 2 -10 13q0 6 4 11t10 5h4q66 -17 121 -25q72 303 72 494q0 169 -55 242q-12 17 -52.5 45.5t-41.5 46.5v4q0 31 32.5 68.5t85.5 72.5t91.5 57t80.5 43q317 158 688 230 q161 29 279 29q263 0 428 -105q104 -64 158.5 -160t54.5 -211q0 -63 -14 -120q-36 -144 -146 -291.5t-286 -263.5q-366 -244 -938 -244q-129 0 -252 12q-3 -7 -13.5 -27.5t-13.5 -29.5q63 -40 130.5 -88t165 -122t140.5 -106q119 -87 183.5 -134t166.5 -115.5t166.5 -103.5 t134.5 -62t119 -27q46 0 82 25l8 4q6 0 11.5 -5.5t5.5 -11.5q0 -4 -6 -10q-42 -31 -99 -31q-44 0 -97.5 15.5t-122.5 52t-125.5 69.5t-146 96t-142.5 101t-154 113q-310 229 -440 309q-234 -501 -314 -780q-14 -47 -33 -47q-18 0 -18 43zM14 -217l2 -16q0 -5 2 -7q1 2 2 8.5 t3.5 18.5t5.5 25q126 392 299 768l-86 49q-48 -189 -125 -443q-7 -23 -22.5 -76.5t-22 -76t-18.5 -64t-17 -62.5t-11.5 -48.5t-9 -45t-2.5 -30.5zM166 1528q1 -12 12.5 -23t26.5 -19t34.5 -25t32.5 -40q52 -93 52 -258q0 -184 -66 -465q68 -11 119 -16q102 214 274.5 519 t276.5 450l-4 -2q-7 0 -16 7.5t-9 18.5q0 15 14 29q68 68 99 68h6q12 -3 23.5 -13t11.5 -20l-4 -13q-62 -104 -214.5 -349t-245.5 -404.5t-157 -294.5q91 -8 207 -8q565 0 946 250q172 113 274 247.5t136 272.5q14 57 14 121q0 219 -190 337q-177 107 -433 107 q-112 0 -256 -25q-153 -29 -339 -91.5t-342 -137.5q-283 -139 -283 -223zM248 659l92 -53l20 41l-110 15z" />
<glyph unicode="S" horiz-adv-x="1773" d="M0 1006v20q17 178 226 383t530 379q280 153 606.5 259.5t603.5 106.5q32 0 98 -4q215 -19 215 -196q0 -87 -51.5 -205t-132 -230.5t-171 -214t-175.5 -169.5t-139 -82q-18 -6 -33 -6q-48 0 -68 40q-4 8 -4 19q0 14 6 20q4 4 11 4q8 0 20.5 -6t22.5 -12l10 -6l8 -2 q17 0 59 20q58 31 137 100t161 162t152 192t114.5 199.5t44.5 174.5q0 151 -189 168q-62 4 -92 4q-468 0 -1169 -385q-304 -167 -507 -364.5t-216 -344.5v-16q0 -71 62 -121t166 -77.5t231.5 -46t267 -34.5t264.5 -35t231.5 -55t159.5 -88q18 10 57 20.5t62 12.5h10 q35 0 35 -23l-2 -8q-17 -29 -39 -29l-37 2q-35 0 -59 -12q45 -74 45 -155q0 -86 -49.5 -180t-129.5 -176.5t-180 -160t-203 -136.5t-195.5 -100.5t-160.5 -57.5q-70 -17 -112 -17q-100 0 -119 68q-2 6 -2 22q0 67 92 175.5t224.5 218t283.5 219.5t265.5 184t174.5 108 q-54 49 -163.5 81.5t-237.5 48.5t-272 29t-275 32.5t-238 50t-171 89.5t-64 143zM403 -375v-12q8 -55 93 -55q51 0 106 14q60 15 147 56t187 99.5t198 134.5t178 156.5t129.5 171.5t49.5 172q0 75 -43 142q-55 -30 -170.5 -105t-266.5 -184t-286 -217t-228.5 -211.5 t-93.5 -161.5z" />
<glyph unicode="T" horiz-adv-x="1417" d="M0 1595q11 113 226.5 222t532.5 185t686 122.5t687 46.5q353 0 598.5 -36.5t300.5 -104.5q16 -19 16 -48q0 -27 -14 -49q-13 -16 -39 -16t-37 14q-6 15 -6 27q0 17 10 24q-79 71 -330 107.5t-599 36.5q-302 0 -649.5 -44.5t-638.5 -115.5t-494 -166.5t-225 -189.5l-2 -13 q0 -43 94 -76q38 -13 174 -48q21 -5 65 -16q95 -23 147.5 -37.5t145 -45.5t149.5 -67t121 -87.5t101.5 -122.5t52.5 -157q296 786 410 846q16 8 28 8q17 0 17 -20q0 -27 -25 -72q-5 -8 -39 -73.5t-53 -96.5q-31 -50 -106 -182q-13 -21 -31 -21q-93 -213 -187 -463 q9 -62 9 -147q0 -178 -31.5 -412t-83.5 -428q-9 -33 -20 -68.5t-33.5 -95.5t-44.5 -104.5t-51 -78.5t-56 -34q-61 0 -61 129q0 70 18 176q80 451 311 1071q-8 66 -29 124t-45 102.5t-67.5 85t-76.5 68t-94 56t-98 44.5t-109.5 37t-108 30.5t-113.5 28.5q-11 3 -16 4 q-17 4 -49 12q-46 11 -68 16.5t-55.5 15.5t-49.5 18.5t-33.5 20.5t-24.5 26t-7 32zM743 -377q0 -91 33 -96h2q36 0 87 140.5t75 236.5q54 205 83 444.5t32 442.5q-93 -250 -175 -522t-118 -470q-19 -116 -19 -176zM1315 1399q35 60 180 336q-9 -9 -19.5 -22.5t-23.5 -36.5 t-23 -40.5t-27 -53.5t-26 -54.5t-30.5 -64t-30.5 -64.5z" />
<glyph unicode="U" horiz-adv-x="1761" d="M0 -39q0 180 91 483t211 580.5t236.5 497.5t170.5 264q6 6 22 6q11 0 19 -4q14 -8 14 -25q0 -8 -6 -14q-65 -53 -186 -275t-239 -494t-206 -561t-88 -454q0 -168 90 -188q21 -6 45 -6q91 0 223.5 78t274.5 203.5t304 296.5t308.5 345t290.5 361q243 538 397 712 q33 39 60 39q20 0 20 -24q0 -22 -22 -64q-20 -34 -72 -124.5t-89.5 -154.5t-83 -141t-78 -129.5t-48.5 -74.5q-73 -163 -142 -341.5t-138 -390.5t-110.5 -423.5t-41.5 -376.5q0 -99 14 -170v-4q0 -11 -12 -15q-16 0 -19 13q-16 88 -16 211q0 284 93.5 639.5t234.5 685.5 q-180 -229 -364 -433t-369.5 -378.5t-351 -277.5t-277.5 -103q-26 0 -47 6q-113 25 -113 225z" />
<glyph unicode="V" horiz-adv-x="1110" d="M0 57q0 297 58 724t110 626q-23 6 -23 49q0 53 30 139t58 127q11 19 35 19q17 0 30 -9t13 -20q-1 -20 -12 -65.5t-16 -59.5q-87 -301 -162.5 -794.5t-75.5 -800.5q0 -129 14 -195q17 -86 66 -86q39 0 98 56q83 74 213 254t238 351.5t246 401.5q41 68 132.5 221t138 229 t124 198t128 191.5t111 141t109.5 111.5q9 6 14 6q7 0 13 -6.5t6 -14.5t-6 -14q-62 -57 -74 -63q-86 -99 -213.5 -290t-204 -315t-250.5 -413q-103 -171 -160 -264.5t-146.5 -235.5t-148 -225.5t-123.5 -166.5t-114 -126q-69 -66 -129 -66q-56 0 -86 62q-41 86 -41 323z" />
<glyph unicode="W" horiz-adv-x="2273" d="M0 141q0 153 66 410q90 356 261 751t312 568q14 14 41 14q25 0 25 -22l-5 -21q-55 -141 -108 -145q-142 -229 -284 -549.5t-214 -603.5q-65 -253 -65 -406q0 -170 86 -170h8q41 3 87.5 26.5t91.5 58.5t99 93.5t101 115.5t108.5 140t110.5 152t117 165q11 15 16 23 q34 48 172 258t221 314q20 20 39 20q9 0 21 -6q18 -10 18 -27q0 -8 -4 -20q-169 -432 -252 -801q-80 -356 -80 -596q0 -149 35.5 -234t110.5 -85h12q44 4 94.5 32.5t98.5 69.5t107 110.5t107.5 134.5t113.5 165.5t112.5 178t117 197.5t114 199.5t114.5 206.5 q255 460 360 629q226 362 380 452q45 25 85 31h4q23 0 35 -20l2 -13q0 -24 -31 -32q-79 -21 -213 -158q-63 -66 -131.5 -159t-152 -229t-140 -233.5t-157.5 -275.5q-274 -488 -382 -664q-281 -455 -471 -589q-88 -61 -163 -64h-6q-197 0 -197 369q0 159 35.5 376t85.5 410 t87 319.5t56 180.5q-94 -120 -333 -463q-63 -90 -95 -135.5t-90 -126t-91 -122.5t-84.5 -106t-86 -98.5t-79.5 -77t-80 -64.5t-74 -38.5t-74 -19.5h-10q-115 0 -115 204z" />
<glyph unicode="X" horiz-adv-x="1896" d="M0 -520q0 7 8 18q207 264 637 705q192 204 438 440q35 357 133.5 688.5t233.5 515.5q2 3 11 7t16 4q6 0 12 -3q16 -6 16 -26q0 -6 -4 -14q-118 -149 -219 -462t-149 -661q529 505 944 821q331 253 542 351q151 71 244 71h14q12 0 20.5 -14.5t8.5 -34.5q0 -48 -39 -65 q-57 -22 -98 -25h-2q-12 0 -19.5 7t-7.5 18q0 21 27 34q33 7 33 13q0 2 -9 2q-44 0 -153 -53q-250 -117 -533 -334q-460 -350 -979 -842q-24 -197 -24 -385q0 -390 112 -565q79 -131 222 -131h10q210 7 520 293q4 4 10 4t13 -7q2 -2 2 -8q0 -8 -4 -12q-320 -292 -539 -299 h-10q-161 0 -248 143q-125 192 -125 639q0 139 12 283q-245 -238 -418 -416q-104 -108 -222.5 -241t-197 -225t-200.5 -238q-8 -13 -19 -13l-8 2q-12 8 -12 15z" />
<glyph unicode="Y" horiz-adv-x="1382" d="M0 543q0 179 111 458q102 263 257 530.5t300 422.5q8 8 22 8q17 0 31 -8.5t14 -24.5q0 -13 -8 -26q-60 -106 -150.5 -228.5t-177.5 -210.5q-127 -182 -235 -463q-117 -314 -117 -481q0 -138 86 -149l37 -2q92 0 213 57.5t245 150t258.5 217t253 251.5t228.5 260 q48 111 70 161.5t71 142.5t93 150q57 74 92 74h8q33 -6 33 -43q0 -34 -29 -90q-54 -108 -215 -314l-64 -77q-37 -87 -72.5 -177.5t-82.5 -215t-68 -179.5l43 4q21 0 41 -8q21 -8 21 -31v-6q-4 -12 -27 -12q-16 0 -18 10q-13 8 -43 8q-19 0 -29 -2q-512 -1286 -807 -1286 l-29 4q-108 23 -108 148q0 47 10 86q27 124 126.5 298t227.5 334.5t278.5 286.5t268.5 156q30 78 83.5 236.5t88.5 244.5q-141 -164 -289.5 -311t-306 -276t-306.5 -205t-261 -76q-27 0 -39 2q-129 16 -129 201zM268 -426q0 -116 90 -137q8 -2 25 -2q64 0 141 72t151 190 t145.5 253.5t135 280t107 249.5t73.5 181q8 21 11 29q-150 -48 -344 -238.5t-342 -418t-185 -387.5q-8 -33 -8 -72zM1470 1409q2 3 29 38t57 75t65.5 94t55.5 96q33 72 33 82q0 7 -6 10h-2q-19 0 -52 -45.5t-69.5 -116.5t-62.5 -127t-48 -106z" />
<glyph unicode="Z" horiz-adv-x="2148" d="M0 961q0 27 25 69q52 78 296.5 224.5t549.5 289.5t635 250t526 107q109 0 168 -33q59 -32 59 -99q0 -41 -31 -98q-71 -119 -247.5 -279t-366.5 -291t-326 -192q86 15 174 15q211 0 350 -109q237 92 336 92q39 0 54 -12q10 -5 10 -16q0 -9 -6.5 -16t-14.5 -7q-4 0 -10 6 q-19 8 -27 27l-20 2q-97 0 -311 -86q119 -99 119 -262q0 -105 -51.5 -228t-136.5 -238t-200 -223t-237.5 -188.5t-253.5 -129t-244 -48.5q-133 0 -233 72q-121 89 -121 207q0 62 31.5 130.5t85.5 133t110.5 118t122.5 105.5q190 152 446 297.5t494 241.5q-108 67 -276 67 q-77 0 -262 -22q-24 0 -31 20l-2 12q0 23 12 31q93 48 234 140t289.5 204t279.5 236.5t188 218.5q33 58 33 88q0 35 -37 53q-46 25 -135 25q-182 0 -506 -105t-628.5 -247t-543.5 -295t-270 -242q4 -14 4 -35t-8 -29.5t-28 -13.5l-11 -2q-21 0 -39 17.5t-18 46.5zM496 -231 q0 -108 106 -185q88 -65 217 -65q107 0 232 45.5t243.5 120.5t229.5 177t194 210.5t133 225.5t50 218q0 163 -132 266q-231 -95 -484.5 -244.5t-450.5 -306.5q-338 -274 -338 -462z" />
<glyph unicode="[" horiz-adv-x="724" d="M98 23q0 18 17 88q46 151 69 219q131 398 271 781t207 486q4 7 20 7q17 0 55 -6.5t45 -6.5q15 0 15 -18q0 -19 -15 -19q-14 0 -92 5q-76 -123 -261.5 -631.5t-274.5 -818.5l-19 -70q52 10 80 10l37 -2q14 0 14 -14q0 -15 -14 -15h-19q-33 0 -75.5 -7t-46.5 -7h-7 q-6 3 -6 19z" />
<glyph unicode="\" horiz-adv-x="751" d="M127 1536q0 7 7.5 13.5t15.5 6.5q7 0 10 -6q2 -3 11 -9.5t15.5 -15.5t6.5 -20v-2q21 -54 84 -256t102 -317q223 -637 268 -801v-4q0 -6 -5 -10t-11 -4q-11 0 -13 10q-65 239 -262 803q-187 537 -227 606z" />
<glyph unicode="]" horiz-adv-x="692" d="M0 18q0 6 4 11.5t10 5.5l86 2q35 150 233.5 708.5t291.5 806.5h-103q-7 0 -12.5 4.5t-5.5 10.5q0 16 31 16q70 0 112 10h2q8 0 13.5 -5.5t5.5 -12.5l-2 -10q-20 -55 -54.5 -148t-122.5 -338t-157.5 -442t-131 -383.5t-71.5 -239.5q-4 -12 -14 -12l-6 2q-6 2 -43 2h-54 q-12 0 -12 12z" />
<glyph unicode="^" horiz-adv-x="473" d="M184 1358q0 6 2 8q20 31 106.5 112t131.5 109q13 8 25 8q16 0 16 -16v-2q-21 -157 -49 -260q0 -12 -15 -12q-14 0 -14 12v4q34 186 35 217q-44 -30 -105 -95t-88 -102q-8 -8 -18 -8t-18.5 8.5t-8.5 16.5z" />
<glyph unicode="_" horiz-adv-x="964" d="M-176 -31q0 9 5.5 18.5t12.5 10.5q137 14 303 14q94 0 270 -5.5t247 -6.5q16 0 16 -23q0 -18 -16 -18q-47 1 -229.5 4.5t-280.5 3.5h-80q-63 -3 -224 -20h-2q-22 0 -22 22z" />
<glyph unicode="`" horiz-adv-x="348" d="M131 1544q0 11 8 22t17 11l8 -4q6 -7 19.5 -16t22.5 -17.5t9 -17.5v-4q66 -69 115 -111q6 -6 6 -14q0 -7 -6 -13t-13 -6l-10 4q-7 7 -75 63t-97 89q-4 4 -4 14z" />
<glyph unicode="a" horiz-adv-x="673" d="M-131 362q0 39 29.5 95.5t70 99.5t70.5 49q12 4 20 4q53 0 78 -57l33 45q4 4 10 4q11 0 17 -6q8 -8 8 -14q0 -9 -6 -15q-34 -41 -90 -153.5t-56 -180.5q0 -60 56 -63h4q42 0 114.5 45.5t137.5 101t136.5 115.5t102.5 78l10 4q5 0 9 -4v-4q0 -8 -9 -14q-39 -24 -113 -84.5 t-137 -113.5t-134 -95.5t-117 -42.5h-9q-67 5 -67 86t76 252q-58 -77 -114 -130t-89 -53l-12 2q-29 12 -29 49zM-94 352q0 -18 14 -18l10 2q39 13 183 192q-17 43 -50 43q-44 0 -100.5 -86.5t-56.5 -132.5z" />
<glyph unicode="b" horiz-adv-x="741" d="M-205 166v4q25 146 107 354q104 245 207.5 435t240.5 364q89 111 171.5 180.5t140.5 69.5q20 0 38 -12q33 -20 33 -66t-35 -125q-47 -103 -187.5 -285.5t-306.5 -351.5t-265 -217q-56 -145 -84 -264q35 55 78 111t101.5 119t123.5 102t121 39h2q48 0 73 -33.5t25 -89.5 q0 -51 -29 -127q21 9 67 29t73 32t68.5 33t78.5 43q4 4 10 4l6 -2l2 -4q0 -5 -8 -10q-31 -19 -60 -35t-65 -33t-53 -25t-66 -29.5t-63 -27.5q-52 -109 -134 -191.5t-171 -95.5h-17q-46 0 -57 25l-2 18q0 15 8.5 32t27 34.5t36.5 32.5t47 32.5t49 29.5t52.5 28t46 22.5 t41.5 19.5l28 13q43 84 43 160q0 85 -59 88l-11 2q-39 0 -84 -27t-83 -65t-80.5 -92.5t-70.5 -97t-60 -92t-42 -64.5q-14 -17 -32 -17h-6q-6 0 -10.5 7.5t-4.5 15.5zM-49 545q99 63 250 217t286.5 328t190.5 288q35 77 35 115q0 35 -25 49q-11 8 -26 8q-31 0 -76 -30 t-89 -75t-73.5 -79t-50.5 -61q-113 -144 -224 -346.5t-198 -413.5zM-10 100q4 -14 28 -14h11q71 18 138 83t114 153q-35 -17 -71.5 -36t-93 -52t-91.5 -66t-35 -57v-11z" />
<glyph unicode="c" horiz-adv-x="512" d="M-147 285q0 95 59.5 207.5t150.5 173.5q58 39 109 39q31 0 49.5 -16t18.5 -40l-2 -16q-1 -5 -17 -37q-12 -18 -26 -18q-7 0 -9 2q-6 3 -6 12q0 12 6 22q9 15 9 29q0 23 -29 23q-35 0 -84 -37q-119 -92 -184 -246q-21 -57 -21 -102q0 -83 51 -101q21 -6 43 -6 q36 0 78.5 16t91 50.5t83 61t86.5 77.5t68.5 67.5t59.5 61.5q6 6 11 6l6 -2l2 -6q0 -4 -6 -10q-42 -46 -74.5 -80.5t-90.5 -88t-106 -88t-105 -61t-104 -26.5q-17 0 -49 8q-69 23 -69 125z" />
<glyph unicode="d" horiz-adv-x="628" d="M-332 147v11q0 34 10 67q17 64 50 125q56 107 130.5 189t135.5 88q14 0 20 -2q64 -10 72 -101v-43q16 21 42.5 62.5t41.5 62.5q19 45 91 185.5t169 319.5t194 316t144 140q12 0 16 -2q14 -8 17 -31v-6q0 -39 -36 -115.5t-63 -121t-51 -81.5q-70 -111 -167 -251 t-150.5 -214t-79.5 -108q-191 -444 -191 -666v-49q9 -88 41 -88h2q8 0 17 6l8 2q14 0 14 -14v-2q0 -6 -8 -10q-11 -9 -31 -13h-4q-36 0 -55 52q-13 42 -16 84l-2 47q0 108 30.5 248.5t77.5 263.5q-32 -43 -58 -74q-10 -13 -10 -20q0 -26 -20 -87v-13.5t-4 -23t-14 -16.5 l-8 -4q-5 0 -9 4t-4 10v9q4 12 10 29.5t10 31.5t7 27q-101 -127 -182.5 -203t-124.5 -80q-56 0 -62 59zM-291 137q0 -18 17 -18h4q80 8 321 315q10 68 10 90v13q-1 25 -11.5 34.5t-33.5 14.5q-40 0 -115.5 -91t-133.5 -199t-58 -155v-4zM307 768q35 25 134.5 164.5 t197.5 290.5q20 32 44.5 73.5t62.5 120.5t38 111v2q-3 14 -10 16l-6 2q-37 -3 -146 -184.5t-197.5 -355t-117.5 -240.5z" />
<glyph unicode="e" horiz-adv-x="602" d="M-152 311q0 46 18 97t46 90q40 58 90 99t98 44h11q53 0 53 -47q0 -15 -2 -23q-12 -50 -94 -98t-150 -51q-31 -52 -31 -119q0 -48 24.5 -81t78.5 -36h12q31 0 69 11.5t71.5 27t77 43.5t73 49t73 55.5t62.5 51t55.5 49t40.5 35.5q6 6 11 6q10 0 10 -8q0 -7 -8 -12 q-6 -6 -20 -18q-49 -45 -81 -72.5t-97 -78.5t-115 -81.5t-111.5 -55t-110.5 -24.5h-16q-71 6 -104.5 46t-33.5 101zM-63 453q62 0 129 44t75 83v8q0 20 -26 20h-11q-36 -5 -88.5 -58.5t-78.5 -96.5z" />
<glyph unicode="f" horiz-adv-x="530" d="M-889 -635q0 70 36 193.5t89.5 255.5t88 212t59.5 132q-3 1 -12.5 3t-16.5 5t-10 8v4q0 15 30 40t54 40q24 49 30.5 63t43.5 89t59 116.5t65.5 123t75 133.5t74.5 123t78 116t72.5 88.5t69.5 64.5t58 21l19 -4q35 -12 35 -64q0 -33 -19 -79q-40 -96 -70 -111l-10 -2 q-10 0 -18 5.5t-8 14.5q0 10 6 19q7 12 13.5 19.5t9.5 10.5t7 9.5t9 17.5q41 86 41 109q0 13 -15 16l-10 2q-73 0 -227 -239.5t-338 -632.5q81 44 221 96.5t231 81.5t156 47h6q8 0 8 -4v-2q0 -5 -12 -8q-132 -33 -326 -104.5t-292 -129.5q-27 -53 -41 -92q75 -21 75 -160 l-4 -59q-15 -127 -73.5 -284t-132.5 -269.5t-127 -116.5h-7q-51 0 -51 82zM-850 -659q0 -29 14 -29h2q51 9 120 117t125 255.5t73 268.5q4 23 4 61q0 60 -17 99t-46 43q0 -1 -17 -43.5t-34.5 -86.5t-44 -113t-49.5 -132t-48 -134t-42.5 -127.5t-28.5 -105t-11 -73.5z M-635 184l29 -2q3 5 11 26t11 25q-1 -1 -12 -9.5t-22 -19t-17 -20.5z" />
<glyph unicode="g" horiz-adv-x="815" d="M-815 -776q0 56 18 123q62 226 245.5 490t379.5 431q127 110 295 193q-3 57 -19.5 84.5t-58.5 36.5h-8q-31 0 -82.5 -40t-107 -96.5t-112.5 -113.5t-114 -97t-96 -40q-17 0 -29 6q-39 17 -39 63q0 61 59 152t140 161t139 76h8q26 0 48 -17.5t28 -45.5l2 -17q0 -17 -8 -22 q-9 -6 -18 -6q-16 0 -21 16q-9 33 -39 33q-45 0 -122 -63t-136 -144.5t-59 -128.5q0 -29 22 -37q16 -4 25 -4q94 0 291 232q72 86 124.5 130.5t98.5 45.5h4q50 0 83 -41.5t38 -102.5q134 68 201 68q45 0 65 -29l2 -8q0 -6 -4.5 -10t-9.5 -4q-9 0 -12 6q-11 16 -41 16 q-68 0 -199 -71q-2 -214 -215 -617q-99 -188 -217.5 -350.5t-241 -268.5t-209.5 -106q-13 0 -33 4q-65 17 -65 113zM-793 -774q0 -85 50 -96l26 -4q81 0 198.5 106t232 267.5t210.5 346.5q93 174 144 324q52 154 55 270q-154 -77 -287 -192q-186 -163 -368.5 -427.5 t-241.5 -477.5q-19 -74 -19 -117z" />
<glyph unicode="h" horiz-adv-x="944" d="M-238 121l2 10q8 26 36 121t41 137t37.5 117t46.5 134.5t46 117.5q64 149 150 306.5t186.5 307t207 245t190.5 95.5q18 0 26 -2q60 -11 60 -84q0 -61 -39 -151q-94 -236 -340 -528t-480 -437q-35 -102 -86 -272q31 43 113 131.5t181 172t143 83.5h4q30 -3 46 -36t19 -81 t8.5 -104t13 -103.5t33 -80t68.5 -34.5h4q31 0 69.5 24t80.5 67t73 79.5t70 86t49 61.5q10 10 15 10l4 -6l-6 -12q-5 -6 -30 -39t-36 -47t-37.5 -46.5t-42.5 -49.5t-41.5 -44t-45 -42t-42.5 -30.5t-44 -22.5t-40 -7h-2q-57 1 -89.5 43.5t-41.5 104.5t-13 124t-13 108.5 t-31 51.5h-4q-37 0 -134 -97t-188 -209t-137 -183q-10 -13 -29 -13q-12 0 -16 2q-15 8 -15 21zM-57 543q143 78 308 249t292.5 357.5t191.5 337.5q37 91 37 137q0 62 -53 62q-71 0 -159.5 -76t-173.5 -197t-170 -274t-153.5 -304.5t-119.5 -291.5z" />
<glyph unicode="i" horiz-adv-x="389" d="M-188 242q0 77 58.5 199.5t82.5 150.5q8 14 27 14q11 0 18.5 -7t7.5 -17q0 -17 -12 -31q-1 -1 -14.5 -17.5t-20.5 -25t-21.5 -30t-24.5 -39.5t-23 -46t-23 -57q-27 -83 -27 -115q0 -21 10 -28q5 -5 17 -5q39 0 135.5 70.5t167 133t123.5 114.5q8 8 14 8l4 -4l2 -4 q0 -4 -10 -12q-2 -2 -34.5 -33t-50 -47.5t-56.5 -51.5t-66 -57t-64.5 -51t-64.5 -45.5t-55 -28.5t-47 -12t-27 8q-26 20 -26 66zM33 760q0 13 12 19.5t27 6.5h4q21 0 24 -18q0 -29 -10 -33q-12 -4 -27 -4q-14 0 -22 8q-8 11 -8 21z" />
<glyph unicode="j" horiz-adv-x="366" d="M-1806 -733q0 69 28 145q43 119 131 247.5t198.5 241t225.5 207.5t228 168q11 29 35 93t36 95t31.5 74.5t38.5 75.5q4 11 20 11l11 -2q10 -3 10 -19l-2 -12q-2 -8 -14.5 -24t-18.5 -31q-25 -51 -96 -234q223 140 412 209h4q7 0 10 -6l2 -6q0 -6 -10 -8q-58 -13 -133 -48 t-126 -65t-139 -86q-6 -4 -10 -6.5t-9.5 -6t-10.5 -6.5q-111 -296 -232 -598q-41 -104 -78 -185t-82 -159t-88 -128.5t-94.5 -81.5t-103.5 -31q-39 0 -74 14q-100 40 -100 162zM-1782 -731q0 -114 84 -146q30 -12 62 -12q60 0 118.5 44.5t112.5 128.5t100.5 180t96.5 223 q40 100 108 294t94 263q-153 -103 -300.5 -237t-272.5 -296.5t-176 -304.5q-27 -76 -27 -137zM-803 735q0 11 12 17q4 1 17 4.5t16 3.5q21 -3 21 -15q0 -6 -4 -14q-7 -18 -29 -18l-12 2q-8 0 -14.5 6.5t-6.5 13.5z" />
<glyph unicode="k" horiz-adv-x="686" d="M-307 68v4q35 173 141 422h-49q-25 0 -25 16l2 8q8 17 35 17h8q29 -3 41 -15q87 189 88 191q-4 0 -14 -4.5t-16 -4.5h-2q-6 0 -6 7q0 5 3.5 10.5t6.5 5.5q25 0 41 6q31 62 81.5 156t135.5 235.5t166 257t168 199.5t145 84q17 0 29 -6q33 -14 33 -58q0 -54 -58 -161 q-101 -178 -303.5 -400t-366.5 -315q-46 -91 -94 -193q78 24 205.5 93.5t222.5 128.5q9 6 17 6q12 0 16 -13l2 -10q0 -14 -14 -22q-69 -42 -235.5 -121.5t-225.5 -91.5q16 -15 52.5 -53t61.5 -61.5t60.5 -51t71 -41.5t71.5 -14q70 0 175 77.5t165 149.5q5 8 11 8l4 -2l2 -4 l-6 -12q-74 -87 -173.5 -161.5t-177.5 -74.5q-32 0 -65.5 10.5t-58.5 24.5t-57.5 39.5t-51 43.5t-51 49.5t-47.5 45.5q-96 -213 -131 -356l-2 -51q-3 -13 -17 -13q-14 3 -14 15zM-12 745q135 73 337.5 299.5t301.5 405.5q53 95 53 149q0 29 -23 35h-10q-50 0 -130.5 -81.5 t-157 -191t-161 -248t-131.5 -223t-79 -145.5z" />
<glyph unicode="l" horiz-adv-x="663" d="M-111 221q0 50 13 123q43 241 211 582q135 279 286 454q75 89 141 139t113 50q21 0 41 -13q23 -20 23 -53q0 -62 -66 -176.5t-161 -235.5t-200.5 -242.5t-184.5 -204t-113 -112.5q-70 -219 -70 -333q0 -109 58 -142q21 -12 47 -12q49 0 115 36.5t138 100.5t127.5 118.5 t120 124t78.5 83.5q6 6 12 6l5 -2q2 0 2 -6t-4 -10q-16 -16 -67.5 -70.5t-94.5 -99.5t-107 -103.5t-117 -98.5t-110.5 -68.5t-101.5 -28.5q-28 0 -56 14q-78 43 -78 180zM2 565q34 34 104 109t175 197t195.5 237.5t156 225.5t65.5 165q0 32 -18 45q-9 6 -23 6 q-33 0 -88 -42.5t-90.5 -81.5t-56.5 -66q-120 -142 -232.5 -359.5t-187.5 -435.5z" />
<glyph unicode="m" horiz-adv-x="1105" d="M-250 188l2 15q10 40 25.5 84t39.5 98t38.5 85t47 96l40.5 81q6 15 17 25t22 10h4q4 0 4 -12q0 -22 -10 -35q-2 -2 -11.5 -21t-19.5 -35t-15 -16q-21 -44 -54.5 -133.5t-45.5 -118.5q38 48 76.5 94t98.5 110t118.5 106.5t101.5 48.5h9q43 0 43 -52l-2 -20 q-15 -76 -93 -270q102 117 160 164q79 65 135 65l15 -2q41 -8 41 -66q0 -39 -27 -138t-27 -132q0 -39 27 -45h12q50 0 147.5 65.5t179 137t140.5 133.5l8 4q3 0 7 -4v-4q0 -3 -7 -10q-32 -36 -89 -89.5t-129 -115t-144 -104t-115 -42.5l-16 2q-49 11 -49 76q0 42 27.5 138.5 t27.5 125.5q0 37 -31 37h-10q-33 -5 -69.5 -28.5t-74 -62t-65 -70.5t-62.5 -76.5t-46 -57.5q-4 -8 -19 -8q-8 0 -10 2q-10 5 -10 21v6q5 17 63.5 156.5t73.5 189.5q4 16 4 29q0 24 -18 24h-5q-51 -8 -124 -74t-131 -137.5t-119 -158.5q-14 -21 -35 -57t-31 -50 q-10 -10 -20 -10q-8 0 -14.5 6.5t-6.5 19.5z" />
<glyph unicode="n" horiz-adv-x="681" d="M-287 219l2 6q16 50 82.5 176t114.5 205q9 15 18 15l7 -3q8 -4 8 -14l-2 -6q-16 -23 -34.5 -61.5t-42.5 -91.5t-36 -78q151 206 238 206l20 -4q26 -9 34 -65q7 -45 6 -94v-24v-16q0 -52 11 -96q13 -52 47 -55h4q16 0 35.5 6.5t41.5 21.5t41.5 29t45.5 38.5t43 40 t43.5 44.5t37 40.5t35 38.5t26.5 30q6 6 10 6l4 -2l2 -4l-6 -10q-2 -2 -37 -42.5t-49.5 -56t-50.5 -53t-59.5 -56.5t-55 -42.5t-58.5 -34t-51 -10.5h-6q-37 2 -57 36t-25 82t-6 96t-3.5 84.5t-12.5 41.5q-4 2 -12 2q-33 0 -93 -64.5t-134 -166t-83 -111.5q-6 -6 -20 -6l-8 2 q-15 10 -15 20z" />
<glyph unicode="o" horiz-adv-x="411" d="M-111 348q0 60 42.5 143t78.5 103h2q6 0 13.5 -7t7.5 -12v-2q7 -2 21 -12.5t22 -15.5q58 -39 168 -39q26 0 116 8q11 0 11 -6v-2q0 -8 -11 -8q-92 -9 -116 -9q-99 0 -166 33l2 -16q0 -67 -48.5 -143t-92.5 -76h-9q-41 8 -41 61zM-78 346q0 -24 15 -33l6 -2q21 0 51.5 53 t38.5 85q12 46 12 61q0 29 -29 39q-29 -27 -61.5 -94t-32.5 -109z" />
<glyph unicode="p" horiz-adv-x="724" d="M-717 -500l2 8q105 373 195.5 620t234.5 544q3 6 15.5 14t19.5 8h2q10 -2 20.5 -12t10.5 -23q0 -8 -6 -20q-4 -8 -23.5 -34t-23.5 -34q-26 -56 -62 -128t-53 -108.5t-44 -100.5t-56 -144q28 63 58.5 122.5t72 132t87 131t95.5 109t105.5 79t109.5 28.5h12q51 -3 76 -42.5 t25 -96.5q0 -48 -15 -88q148 45 226 49q16 0 16 -4v-2q0 -3 -16 -6q-20 -2 -40.5 -5.5t-36 -7t-39 -10t-36 -10t-41.5 -12.5t-41 -13q-39 -98 -110.5 -168t-165.5 -104q-37 -14 -78 -14q-58 0 -66 32l-2 13q0 38 48.5 80.5t121 77t127 57t96.5 35.5q21 54 21 104 q0 43 -16.5 72.5t-51.5 32.5h-12q-64 0 -134.5 -53t-131.5 -134t-126 -196.5t-113.5 -219.5t-98 -225t-75.5 -192t-50 -140q-6 -16 -16 -16h-5q-3 0 -7.5 4t-4.5 10zM-266 203l2 -8q3 -13 37 -13q30 0 71 13q83 32 148 93.5t104 141.5q-30 -11 -82 -33.5t-119 -56 t-114 -71.5t-47 -66z" />
<glyph unicode="q" horiz-adv-x="481" d="M-287 -686q0 142 77 372.5t142 372.5q-16 7 -32 7h-15q-7 0 -14.5 -5.5t-9.5 -5.5h-2q-7 0 -12 5.5t-5 13.5q0 17 17 20l32 2q30 0 54 -8q18 37 52 106t53 106.5t48 91.5t56 100q-274 -269 -365 -269h-8q-41 6 -41 53q0 59 56 153t137.5 167.5t144.5 73.5q26 0 43 -11 q51 -32 51 -110v-8q12 12 58.5 101t58.5 97q4 4 12 4q18 0 18 -22l-4 -16q-7 -24 -25 -48.5t-20 -27.5q-36 -58 -85.5 -156.5t-112 -228.5t-84.5 -174q74 -36 109.5 -118.5t35.5 -193.5q0 -130 -44.5 -264t-121.5 -224.5t-160 -90.5l-26 2q-68 11 -68 133zM-266 -700 q0 -92 51 -103l22 -2q75 0 148 87.5t117.5 217.5t44.5 254q0 101 -35 177t-107 110q-57 -107 -149 -356.5t-92 -384.5zM-227 254q0 -14 14 -14q75 0 358 274v12q0 35 -10 66t-33 35h-4q-35 0 -114.5 -78t-145 -169t-65.5 -126z" />
<glyph unicode="r" horiz-adv-x="708" d="M-61 532q0 36 16 68q12 21 35 21q14 0 24.5 -9.5t10.5 -25.5q0 -10 -7 -27q-11 -26 -30 -53q15 -9 46 -17t50.5 -20.5t26.5 -38.5l2 -18q0 -48 -58.5 -192t-58.5 -187q0 -28 14 -39q11 -8 29 -8q49 0 144 74.5t184.5 166.5t182 179.5t132.5 105.5l4 2q2 0 6 -4 q0 -5 -6 -8q-39 -23 -131.5 -114.5t-181.5 -182.5t-186 -165.5t-152 -74.5q-24 0 -39 12q-27 22 -27 74q0 63 46 200t46 159v8q-3 15 -23.5 26t-48.5 24t-42 30q-8 8 -8 34z" />
<glyph unicode="s" horiz-adv-x="606" d="M-283 72q0 40 46.5 89t121.5 95.5t121.5 72t93.5 48.5q-17 34 -71 54.5t-105 36t-63 36.5q-2 4 -2 12q0 29 42 69t101 69.5t102 29.5q63 0 66 -61l2 -11q0 -18 -20 -22l-9 -2q-21 0 -24 16q-3 39 -39 39q-45 0 -111.5 -47t-66.5 -72v-4q7 -12 54 -27t98.5 -40.5 t70.5 -63.5q79 35 181 73t163 52q10 0 10 -2q0 -6 -8 -6q-108 -23 -342 -133v-15q0 -63 -56.5 -148t-136.5 -145.5t-141 -60.5q-34 0 -55 21q-23 20 -23 47zM-260 74q0 -19 14 -33q17 -14 41 -14q53 0 128 58t129 136.5t54 132.5v6q-43 -15 -126.5 -63t-161.5 -114t-78 -109 z" />
<glyph unicode="t" horiz-adv-x="358" d="M-1257 1133q0 18 8 26q29 20 153 39q31 -10 31 -24q0 -5 -6 -11q129 7 252.5 11.5t270.5 8t245 7.5q159 315 229 424q13 24 33 24q11 0 19 -9t8 -23q0 -18 -15 -39q-9 -14 -17.5 -24.5t-17.5 -24.5t-28 -48q-93 -163 -156 -278h2q485 20 608 20l293 -4q50 -8 50 -37 q0 -14 -11.5 -28t-23.5 -19l-19 -4q-16 0 -32.5 12t-27 23.5t-13.5 11.5l-457 4l-383 -4q-153 -283 -324 -649q-218 -472 -239 -764q0 -26 20 -71l2 -9q0 -16 -18 -16l-6 2q-10 4 -16.5 30.5t-6.5 55.5v18q24 215 111.5 465t197.5 478l226 458q-372 -8 -766 -51 q-105 -10 -127 -10q-21 0 -29 2q-20 5 -20 27z" />
<glyph unicode="u" horiz-adv-x="614" d="M-135 322q0 61 49 157.5t76 110.5q12 4 14 4q8 0 14 -6q9 -9 9 -17q0 -5 -11 -16q-37 -36 -79.5 -119.5t-42.5 -124.5q0 -17 8 -20q4 -2 16 -2q30 0 75.5 37t80 77t77.5 94t50 62q12 12 24 12l8 -4q5 -10 5 -14q0 -8 -5 -18q-37 -65 -79.5 -160.5t-42.5 -149.5 q0 -33 18 -41q4 -2 14 -2q25 0 67.5 26t96.5 73t94 84.5t91 88t57 56.5l8 4q8 0 8 -6q0 -4 -6 -10q-13 -12 -79.5 -78.5t-117.5 -115t-116 -92.5t-103 -44q-10 0 -22 4q-35 17 -35 72q0 50 24 116t52 117q-161 -211 -250 -211q-12 0 -18 2q-29 9 -29 54z" />
<glyph unicode="v" horiz-adv-x="671" d="M-205 131q0 78 50.5 236.5t76.5 203.5q11 17 25 17q9 0 14.5 -6.5t5.5 -14.5v-6q-1 -7 -10.5 -18t-13.5 -21q-19 -40 -70 -192.5t-51 -202.5q0 -15 6 -18h2q31 0 153 140.5t205 256.5v8q0 24 13 49t32 25l11 -2q14 -7 14 -19q0 -13 -10 -30q-15 -27 -33 -45 q16 -50 98 -50q62 0 141.5 24t118.5 46h2q7 0 7 -4t-4 -4q-45 -27 -127.5 -53.5t-147.5 -26.5q-85 0 -106 51q-9 -11 -38.5 -49.5t-45 -57.5t-45.5 -57t-49 -59.5t-46 -53t-46 -49.5t-39.5 -36t-36.5 -26.5t-27 -8.5l-10 2q-19 6 -19 51z" />
<glyph unicode="w" horiz-adv-x="882" d="M-188 193q0 76 45 202.5t71 165.5q7 12 21 12q9 0 15.5 -6t6.5 -14l-2 -6q-24 -48 -49.5 -105.5t-53.5 -139t-28 -124.5v-8q3 -25 15 -27h2q32 0 105 87.5t128.5 170t91.5 142.5q10 16 23 16q18 0 18 -20v-9q-1 -8 -11 -56.5t-18 -92t-15 -100.5t-7 -97v-14q0 -74 23 -74 h2q35 1 85 55.5t99 137.5t81 142t54 106q-12 15 -12 32q0 22 13 40t28 18l6 -2q12 -3 12 -19l-2 -14q-1 -7 -20 -53q59 -33 159 -33q40 0 90 8q17 0 17 -6q0 -7 -12 -10q-35 -6 -76 -6q-117 0 -189 34q-21 -46 -41 -86.5t-60.5 -114.5t-75.5 -125.5t-78.5 -92t-77.5 -41.5 q-64 0 -64 155q0 109 25 238q-3 -5 -19 -28.5t-28 -41t-32.5 -47t-38 -52t-39 -50t-40.5 -47t-38.5 -37t-36.5 -26.5t-31 -9l-9 2q-32 8 -32 70z" />
<glyph unicode="x" horiz-adv-x="784" d="M-438 20q0 9 4 13q78 96 207 231q-6 41 -6 86q0 152 38 256q16 39 43 39q12 0 19 -10l4 -19q0 -26 -31 -51q-28 -107 -28 -239v-21q79 83 122 127t106.5 105t111 95.5t84.5 49.5l10 2q12 0 23.5 -9t11.5 -18q0 -13 -21 -22q-4 -2 -27 -9t-38 -16q-142 -94 -379 -338 q2 -54 21 -86t65 -39l28 -2q41 0 90.5 14t104.5 43.5t100.5 56t105.5 70.5t90.5 67t84 66t59.5 48l13 4l4 -2l2 -4q0 -6 -6 -12q-14 -11 -77.5 -61t-104 -80.5t-112 -79t-125 -76.5t-117.5 -50t-114 -22l-24 2q-102 9 -125 107q-120 -123 -199 -218q-6 -6 -10 -6l-6 2 q-2 2 -2 6z" />
<glyph unicode="y" horiz-adv-x="700" d="M-1024 -668q0 77 29 162q17 49 40.5 96.5t47.5 87t58 82t61.5 74.5t70.5 72t72.5 66t78.5 65t78 61.5t83 63t81 61.5q94 205 138 281q-11 -12 -46.5 -48.5t-57 -58t-57 -56.5t-61.5 -56.5t-56 -43.5t-54 -33t-43 -11q-15 0 -21 4q-26 14 -26 53q0 47 28 115 q25 69 69 148.5t65 109.5q8 8 18 8t17.5 -5.5t7.5 -15.5q0 -6 -3 -12q-1 -2 -16.5 -16t-23.5 -29q-20 -32 -44.5 -76t-60 -122t-35.5 -113q0 -29 21 -29q46 0 144 86.5t196 188.5t119 116q2 2 8 2t11 -4t5 -10l-4 -8q-17 -23 -34 -50t-28.5 -46.5t-30 -56.5t-25 -51t-28 -60 t-26.5 -56q82 58 214.5 128.5t229.5 113.5l9 4l4 -2v-2q0 -4 -9 -10q-125 -61 -261.5 -136t-200.5 -122q-26 -51 -70.5 -161.5t-87 -222.5t-100 -239t-112.5 -223t-122 -160t-131 -65h-2q-127 0 -127 161zM-1001 -672q0 -139 102 -139h6q52 2 110.5 63t108.5 149t105 210 t93.5 223t81 211.5t60.5 153.5q-206 -161 -271 -217q-239 -208 -337 -415q-18 -40 -33 -81q-26 -76 -26 -158z" />
<glyph unicode="z" horiz-adv-x="675" d="M-918 -633q0 72 41 164q79 173 257.5 380t381.5 363q-40 5 -47 5q-35 0 -88 -15h-6q-7 0 -12.5 5.5t-5.5 13.5q0 15 14 26q45 35 121.5 112.5t114.5 137.5q30 42 30 68q0 8 -2 12q-10 10 -33 10q-62 0 -162.5 -48.5t-109.5 -88.5q-3 -10 -16 -10l-11 2q-10 3 -10 10v4 q9 41 121 94.5t186 53.5q48 0 54 -29v-8q0 -48 -80 -152t-135 -153q83 0 116 -15q191 141 422 203l6 2q5 0 11 -6v-2q0 -4 -13 -10q-219 -59 -407 -199q45 -28 45 -145l-2 -62q-11 -101 -77 -247.5t-136 -257t-115 -158.5q-189 -195 -323 -195q-36 0 -64 14q-66 34 -66 121z M-897 -633q0 -80 55 -108q22 -11 51 -11q74 0 165.5 65t152.5 140q113 141 200 319t101 316l2 41q0 100 -49 139q-204 -157 -383.5 -366.5t-257.5 -382.5q-37 -87 -37 -152z" />
<glyph unicode="{" horiz-adv-x="634" d="M119 90q0 131 178 512q41 84 41 137l-2 17q-3 12 -11 19t-21.5 11.5t-16.5 6.5q-8 3 -8 12q0 11 14 14q15 2 27.5 7.5t35 22.5t49.5 58t56 103q15 31 56 146.5t79.5 221.5t86.5 196t83 93h2q16 0 16 -20q0 -17 -12 -17q-24 0 -49 -39q-51 -72 -142 -321t-104 -273 q-57 -112 -93 -153q-24 -28 -48 -41q33 -20 33 -68q0 -47 -45 -145q-177 -379 -177 -496q0 -18 7 -35q3 -12 18 -12q16 0 43 12l8 2q17 0 17 -18q0 -9 -11 -16q-37 -15 -53 -15q-36 0 -51 35q-6 18 -6 43z" />
<glyph unicode="|" horiz-adv-x="552" d="M274 111q0 246 32 737.5t36 587.5q-14 0 -14 28q0 18 7.5 59t8.5 48q3 18 25 18t22 -16q-7 -177 -46.5 -690.5t-39.5 -771.5q0 -15 -14 -15q-17 0 -17 15z" />
<glyph unicode="}" horiz-adv-x="616" d="M0 39q0 10 6 10l4 -2l15 -4q30 0 58 63.5t53 159t52.5 195.5t70 187.5t93.5 119.5q-22 19 -22 70q0 28 6.5 62.5t22 81.5t27 80t35.5 96t34 91q75 210 75 307v7q0 49 -34 49q-15 0 -15 14t15 14h4q58 0 61 -77v-4q0 -64 -49 -211.5t-98 -295.5t-49 -214q0 -54 32 -62 q11 -3 11 -14q0 -8 -11 -14q-109 -36 -180 -291q-13 -46 -31 -123.5t-31 -125.5t-30.5 -99t-38.5 -76t-47 -25q-13 0 -25 6q-14 6 -14 25z" />
<glyph unicode="~" horiz-adv-x="622" d="M238 520l2 6q35 72 77 72q35 0 89 -47q5 -4 13.5 -11t13 -10.5t10.5 -8t10.5 -6t9.5 -1.5q28 0 78 64q2 4 10 4t15 -7.5t7 -17.5q0 -8 -6 -14q-60 -68 -104 -68q-15 0 -31.5 8t-27 16.5t-29.5 26.5q-35 35 -51 35q-24 0 -60 -47q-3 -8 -12 -8q-5 0 -9.5 4t-4.5 10z" />
<glyph unicode="&#xa1;" horiz-adv-x="974" d="M328 145l2 7q165 283 318 598.5t235 556.5q3 12 16 12q12 0 12 -14v-7q-37 -150 -128 -357t-173.5 -362t-203.5 -370l2 -12q0 -11 -19 -30t-24 -28q-5 -8 -17 -8q-8 0 -14 4t-6 10zM922 1516q3 24 24 24q11 0 31 -4q18 -6 18 -25v-4q-6 -26 -32 -26q-5 0 -17 4 q-24 5 -24 31z" />
<glyph unicode="&#xa2;" horiz-adv-x="841" d="M242 479q0 124 86 262q57 90 141 157.5t188 98.5q40 10 48 11q49 89 86 145v6q0 12 7.5 26t21 32t18.5 26q11 14 22 14q10 0 16.5 -7t6.5 -15t-2 -10q-72 -112 -133 -217q47 -4 72.5 -33t25.5 -74q0 -95 -107 -196q-5 -5 -10 -5q-10 0 -19.5 7t-9.5 16q0 7 11 18 q41 38 65.5 80t24.5 76q0 61 -80 64q-151 -272 -309 -648h12q61 0 113 27.5t120 85.5q8 4 11 4q10 0 10 -10q0 -6 -6 -12q-73 -59 -127.5 -87t-118.5 -28h-23q-26 -60 -108 -277q-3 -10 -12 -10q-6 0 -11.5 5t-5.5 12v4q70 180 107 270q-65 13 -98 61.5t-33 120.5zM270 469 q0 -133 111 -152q153 375 297 641h-8q-90 -14 -174 -75.5t-142 -157.5q-84 -135 -84 -256z" />
<glyph unicode="&#xa3;" horiz-adv-x="1480" d="M0 119q0 57 65 103t185 46q17 0 67 -4q175 218 388 551q-58 -3 -152.5 -11t-114.5 -9h-2q-14 0 -14 12q0 13 14 16q40 15 56 15t26 -13l203 19q16 20 39 59q12 19 44 72.5t53 89t59 91.5t68.5 94t73 82.5t81 71t84 44.5t90.5 18q17 0 57 -8q44 -10 72.5 -45t38.5 -82 q0 -22 -17 -22q-14 0 -18 14q-15 78 -82 100q-24 9 -51 9q-39 0 -80.5 -18t-77 -45.5t-74.5 -70t-69 -81.5t-64.5 -90.5t-56 -87.5t-48.5 -81.5t-38 -62.5l-31 -49q118 8 164 8q64 0 94 -10q10 -3 10 -13q0 -16 -16 -16l-35 2q-22 0 -26 6l-52 2q-26 0 -83 -2.5t-72 -3.5 q-217 -340 -396 -561q81 -13 198 -53t223 -71.5t188 -31.5q96 0 170 43l8 2q6 0 10 -4.5t4 -9.5q0 -9 -8 -12q-85 -49 -192 -49q-86 0 -197 31.5t-229 70t-201 49.5q-143 -182 -246 -182l-24 2q-31 6 -48.5 26.5t-17.5 49.5zM37 121q0 -39 37 -49l18 -2q19 0 39.5 9t36 19.5 t37 32t31 32t30.5 36t23 28.5l-49 2q-100 0 -151.5 -34t-51.5 -74z" />
<glyph unicode="&#xa5;" horiz-adv-x="1159" d="M41 297q0 12 14 12q98 8 219 8q2 6 15 40t20 51h-59q-50 0 -146 -11h-2q-12 0 -12 11q0 13 14 16q29 4 95 4h73l43 -2q8 20 22 50t17 36q-108 18 -108 213q0 62 10 117q46 269 227 561q7 10 27 10q22 0 22 -16q0 -7 -6 -19q-52 -96 -86 -164t-73.5 -159.5t-59.5 -173 t-20 -150.5q0 -33 6 -67q8 -46 26.5 -83t40.5 -40q7 0 9 -2l8 8q2 4 10 4t10 -4q4 -4 4 -8q191 8 402 323q20 30 38.5 61.5t37 67t30.5 58.5t31 64.5t25 54.5t26 58t21 48q-6 9 -6 18q0 16 16 47.5t16 32.5q3 10 21 10q11 0 21 -5t10 -11v-4q-132 -318 -263 -516 q-225 -338 -432 -338h-10q-15 -27 -37 -82q124 -3 201 -10q14 0 14 -15q0 -5 -4 -9.5t-10 -4.5h-2q-15 1 -87.5 8.5t-119.5 10.5q-19 -47 -33 -89h12q127 0 193 -10q12 -4 12 -14q0 -8 -10 -8h-6q-102 12 -191 12h-18l-8 -25q-49 -145 -49 -178l2 -14q0 -9 -6 -12l-9 -2 q-9 0 -12 8l-4 16q0 46 49 191l6 16q-51 -1 -131.5 -5.5t-81.5 -4.5h-2q-12 0 -12 10z" />
<glyph unicode="&#xa7;" horiz-adv-x="2328" d="M66 -94q0 27 4 43q25 114 174 291q6 6 12 6t10 -5.5t4 -11.5t-4 -10q-168 -193 -168 -307q0 -145 267 -145q157 0 337 43q107 25 208.5 67t192 100.5t152.5 137.5t78 166q2 10 2 30q0 35 -14 66t-45 57.5t-60.5 46.5t-81 41.5t-85 34.5t-91.5 33q-55 19 -83.5 30 t-73.5 29.5t-69 34t-49.5 36.5t-36.5 44.5t-11 50.5l2 23q7 42 43 78t85 61t114.5 46t122.5 33t118 21q-69 33 -117 59t-98 60.5t-76 71t-26 73.5q0 21 14 52q47 91 239.5 197t441.5 179.5t439 73.5q206 0 285 -90q43 -46 43 -125q0 -47 -14 -96q-9 -31 -31 -31 q-10 0 -17.5 9.5t-7.5 23.5v8q11 79 11 105q0 45 -21 75q-67 90 -262 90q-180 0 -416.5 -71t-420.5 -173t-228 -188q-10 -20 -10 -39q0 -29 22 -60t52 -55t76.5 -51t79 -43.5t76.5 -37.5q10 -5 15 -7l5 -2q40 7 57 7h2q16 0 16 -13q0 -10 -12 -10l-23 -2q101 -48 148 -78 q154 -104 154 -205q0 -32 -16.5 -64t-39 -56t-58.5 -50.5t-60.5 -41t-62 -35t-46.5 -25.5q145 -81 145 -195l-4 -34q-14 -83 -60 -157t-110.5 -129t-148.5 -101t-168.5 -76t-175.5 -51q-151 -37 -326 -37q-319 0 -319 174zM664 819q0 -23 10.5 -43.5t35 -39t46.5 -32 t64.5 -31t69 -27.5t77.5 -28q18 -7 58.5 -21t63.5 -22.5t54.5 -21.5t56.5 -25q16 11 57 33.5t76 44t72 49t58.5 61t21.5 68.5q0 86 -139 181q-53 34 -187 94q-75 -11 -146.5 -27.5t-151.5 -43.5t-133 -67t-62 -87z" />
<glyph unicode="&#xa9;" horiz-adv-x="1044" d="M131 350q0 183 106 401t242 326q51 81 119 121.5t141 40.5q126 0 219 -103.5t93 -271.5q0 -114 -47 -239q-40 -107 -101.5 -206.5t-138.5 -181t-172 -130t-191 -48.5h-18q-130 7 -191 85t-61 206zM174 344q0 -112 51 -180t158 -74h16q75 0 151 36t137 92.5t116.5 129.5 t94 144t65.5 139q47 117 47 233q0 106 -39 189q-32 71 -83.5 109t-115.5 38q-75 0 -149 -51q59 28 163 35q7 0 12 -4t5 -9q0 -12 -15 -12q-154 -6 -286.5 -127.5t-225.5 -306.5q-102 -209 -102 -381zM373 498q0 117 94 254q45 67 107.5 121.5t123.5 70.5q24 6 43 6 q39 0 61.5 -20t22.5 -51q0 -64 -73 -119l-9 -4q-6 0 -11 5t-5 11t6 12q60 45 60 90q0 37 -43 37q-61 0 -154 -75q-88 -73 -143.5 -174t-55.5 -177q0 -92 76 -98h12q68 0 162 64l8 2q6 0 10.5 -5t4.5 -10q0 -9 -6 -12q-97 -66 -172 -66q-55 0 -87 37.5t-32 100.5z" />
<glyph unicode="&#xab;" horiz-adv-x="841" d="M172 342q0 8 4 10q17 16 255 105.5t261 93.5q31 0 31 -21q0 -14 -14 -18q-25 -4 -219.5 -72.5t-268.5 -97.5q11 -4 76 -26t117.5 -41.5t70.5 -30.5q7 -7 7 -13q0 -7 -4.5 -12.5t-10.5 -5.5l-10 4q-27 18 -139.5 60t-145.5 51q-10 2 -10 14zM469 356q0 8 8 11 q30 10 113.5 45.5t153.5 61.5t100 26q7 0 11.5 -5t4.5 -10q0 -16 -16 -16h-2q-35 0 -322 -113q18 -5 70.5 -21.5t89 -27t59.5 -14.5q13 0 13 -12q0 -6 -4.5 -11.5t-10.5 -5.5h-2q-32 7 -137.5 40.5t-114.5 35.5q-14 4 -14 16z" />
<glyph unicode="&#xad;" d="M82 596q0 14 10 14q3 1 15.5 4t25 5t21.5 2q13 0 20 -7q31 2 105 2q168 0 233 -16q12 -3 12 -14q0 -6 -4 -11.5t-10 -5.5h-4q-65 15 -199 15q-130 0 -205 -11h-2q-8 0 -13 7.5t-5 15.5z" />
<glyph unicode="&#xae;" horiz-adv-x="784" d="M598 1174q0 56 27 120q35 93 96 136q50 38 115 38h12q25 5 31 5h10q65 -6 100 -55.5t35 -117.5q0 -31 -10 -69q-25 -78 -83 -137t-136 -72q-14 -4 -43 -4q-69 0 -111.5 42t-42.5 114zM618 1176q0 -65 39 -100.5t97 -35.5q5 0 15 1t15 1q67 11 126 61.5t85 133.5 q13 37 13 66q0 65 -41 106t-88 41h-9q-4 -6 -8 -6h-6q-6 0 -14 -8q-4 -4 -8 -4q-5 0 -9 4t-4 8q-61 -6 -107.5 -51t-72.5 -109q-23 -59 -23 -108zM688 1126l2 4q4 33 55 123h-16q-4 2 -4 9q0 6 4 11t10 5h19q14 27 36 55.5t40 28.5q12 0 12 -10q0 -11 -12 -15q-10 0 -50 -57 q103 8 119 49q6 9 6 19q0 30 -55 30q-26 0 -49 -7t-29 -17h-6q-8 0 -12 8v4q0 16 10 16q43 17 94 17q29 -2 48.5 -16.5t19.5 -36.5q0 -9 -6 -21q-22 -55 -140 -63q28 -21 59 -55.5t38 -59.5v-4q0 -9 -9 -13h-4q-8 0 -12 9q-4 18 -16.5 41t-30.5 37q-13 15 -43 30 q-51 -86 -64 -121q0 -8 -6 -8l-4 2q-4 0 -4 6z" />
<glyph unicode="&#xbb;" horiz-adv-x="858" d="M152 291q0 9 10 12q39 11 176 34.5t166 29.5q-25 14 -89 45t-98 45q-6 2 -17 3.5t-13 2.5q-11 3 -11 14q0 5 3.5 10t9.5 5h4q37 -7 237 -117q9 -6 9 -13q0 -10 -13 -14q-37 -12 -177 -37t-177 -37h-4q-7 0 -11.5 5.5t-4.5 11.5zM287 219q0 11 10 14q13 3 46 7t54 8 q112 22 344 82q-188 100 -239 133q-6 6 -6 12t4 11.5t10 5.5l8 -5q54 -36 136 -84t124 -65q10 -3 10 -14q0 -12 -12 -15q-175 -49 -368 -84q-81 -14 -103 -22h-4q-6 0 -10 5t-4 11z" />
<glyph unicode="&#xbf;" horiz-adv-x="1183" d="M201 322q0 80 59.5 180.5t149 193.5t197 193t201 180.5t163 154.5t82.5 117q3 11 14 11q14 0 14 -13v-6q-11 -37 -64 -97.5t-128.5 -130.5t-164.5 -150t-176 -164.5t-158 -165t-115 -159.5t-44 -140q0 -26 9 -50q33 -88 172 -88q98 0 201 47.5t155 124.5l-2 21 q0 39 33 51l14 2q31 0 31 -24l-2 -13q-42 -107 -170.5 -176t-257.5 -69q-79 0 -134.5 29.5t-72.5 88.5q-6 24 -6 52zM1085 1511v2q1 10 13 21t22 14l15 2q30 0 30 -30v-4q-3 -39 -53 -39q-11 3 -19 12.5t-8 21.5z" />
<glyph unicode="&#xc0;" horiz-adv-x="2203" d="M0 621v4q6 54 103 84t206 30h10q311 -9 527 -116q53 70 187.5 230t336 385.5t395.5 426t368.5 342t252.5 141.5q20 0 33 -10q24 -18 24 -55q0 -41 -24 -117t-86 -248q-80 -225 -238.5 -621.5t-171.5 -434.5l281 22q60 6 73 6q74 0 74 -41q0 -17 -8 -33q-6 -12 -21 -12h-6 q-18 4 -18 21l2 8q2 6 6 10.5t7 6.5t3 3l-2 2q-14 7 -37 7q-19 0 -59 -5t-49 -6q-199 -17 -258 -24q-230 -597 -338 -996q-3 -11 -11.5 -17.5t-17.5 -6.5q-16 0 -22 14q-35 67 -83.5 165.5t-83 171t-83.5 162.5t-94.5 158t-106.5 137.5t-127 121.5q-6 -1 -143 -7 q-74 -98 -153 -211.5t-169 -257t-147.5 -273.5t-57.5 -206v-4q0 -4 13 -43l2 -6q0 -5 -13 -14h-6q-13 0 -16 8q-8 19 -8 51q0 65 40 166.5t96 201t135 220t136.5 201t120.5 165.5q-222 -12 -344 -12q-111 0 -192 8q-238 18 -238 97zM31 618q0 -28 63 -46t150 -25 q80 -6 155 -6q59 0 122 2.5t150.5 7t123.5 6.5l36 49q-209 105 -516 111h-10q-86 0 -178 -24.5t-96 -69.5v-5zM825 561l82 2q-26 19 -55 31zM866 610q3 -2 33.5 -18t44.5 -25q113 6 219 13.5t211.5 18t168 17.5t172 20t140.5 17l422 1094q109 281 109 332q0 17 -8 20l-13 2 q-55 0 -216.5 -137t-356.5 -336t-393.5 -414t-343 -379.5t-189.5 -224.5zM985 539q94 -69 197 -206t179 -276t123.5 -237.5t59.5 -132.5q10 60 108 366.5t189 564.5q-489 -59 -856 -79zM2372 2396q0 13 11.5 26t24.5 13h5q21 -6 33 -20.5t12 -32.5v-6q123 -130 139 -144 q6 -6 6 -12q0 -7 -5 -12.5t-11 -5.5q-5 0 -13 4q-12 10 -61 50t-82 70t-55 56q-4 4 -4 14z" />
<glyph unicode="&#xc1;" horiz-adv-x="2174" d="M0 621v4q3 37 55 64t119.5 38.5t134.5 11.5h10q312 -9 525 -116q42 55 145 178t254.5 298.5t320.5 356t328.5 337t293.5 256t200 99.5q20 0 33 -10q22 -17 22 -55q0 -41 -24.5 -121t-83.5 -244q-78 -220 -237 -616t-173 -440l281 22q60 6 73 6q74 0 74 -39q0 -12 -10 -35 q-6 -12 -21 -12h-4q-18 4 -18 21l2 8q2 7 6 11.5t7 7t3 3.5h-2q-14 7 -37 7q-20 0 -59.5 -5t-50.5 -6q-192 -16 -256 -24q-237 -615 -340 -996q-6 -24 -29 -24q-16 0 -22 14q-35 66 -83 165.5t-82 171.5t-83.5 162t-94.5 158t-106 137.5t-127 121.5q-6 -1 -143 -7 q-58 -78 -117 -160.5t-136.5 -201t-135 -220t-98 -202t-40.5 -162.5v-6q0 -4 13 -43l2 -6q0 -4 -15 -14h-6q-11 0 -16 8q-8 19 -8 51q0 65 40 166.5t96 201t135 220t136.5 201t120.5 165.5q-222 -12 -342 -12q-111 0 -192 8q-238 18 -238 97zM29 621q0 -28 64 -47.5 t149 -26.5q79 -6 157 -6q59 0 122 2.5t149 7t125 6.5l36 49q-209 105 -516 111h-10q-52 0 -110.5 -8.5t-110 -31.5t-55.5 -54v-2zM825 561l82 2l-55 31zM864 610q71 -37 80 -43q113 6 218.5 13.5t212.5 18.5t166.5 17.5t172.5 20t139 16.5q23 57 424 1094q109 284 109 332 q0 17 -8 20l-13 2q-68 0 -294.5 -205.5t-478.5 -474t-459 -500t-269 -311.5zM985 539q76 -56 159.5 -160t147.5 -208.5t123 -216.5t88 -175t41 -92q10 60 108 366.5t189 564.5q-489 -59 -856 -79zM2232 2259q0 13 13 16q28 11 101 47t79 39q3 17 18 28t37 11h8 q10 -1 18.5 -14t8.5 -27q0 -13 -10 -20q-30 -16 -72.5 -32.5t-100 -36.5t-75.5 -27l-6 -2q-7 0 -13 6t-6 12z" />
<glyph unicode="&#xc2;" horiz-adv-x="2197" d="M0 621v4q6 54 103 84t206 30h10q311 -9 527 -116q53 70 187.5 230t336 385.5t395.5 426t368.5 342t252.5 141.5q20 0 33 -10q24 -18 24 -55q0 -41 -24 -117t-86 -248q-80 -225 -238.5 -621.5t-171.5 -434.5l281 22q60 6 73 6q74 0 74 -41q0 -17 -8 -33q-6 -12 -21 -12h-6 q-18 4 -18 21l2 8q2 7 6 11.5t7 7t3 3.5h-2q-14 7 -37 7q-20 0 -59.5 -5t-48.5 -6q-199 -17 -258 -24q-230 -597 -338 -996q-3 -11 -11.5 -17.5t-17.5 -6.5q-18 0 -24 14q-35 66 -83 165.5t-82 171.5t-83.5 162t-94.5 158t-106 137.5t-127 121.5q-6 -1 -143 -7 q-74 -98 -153 -211.5t-169 -257t-147.5 -273.5t-57.5 -206v-4q0 -4 13 -43l2 -6q0 -5 -13 -14h-6q-13 0 -16 8q-8 19 -8 53q0 79 56 207.5t147 273t168 255t157 216.5q-222 -12 -344 -12q-111 0 -192 8q-238 18 -238 97zM29 621q0 -28 64.5 -47.5t150.5 -26.5q80 -6 155 -6 q59 0 122 2.5t150.5 7t123.5 6.5l36 49q-209 105 -516 111h-10q-86 0 -178.5 -24.5t-97.5 -69.5v-2zM825 561l82 2q-16 12 -55 31zM864 610q71 -37 80 -43q113 6 219 13.5t211.5 18t168 17.5t172 20t140.5 17l422 1094q109 281 109 332q0 17 -8 20l-13 2 q-68 0 -294.5 -205.5t-478.5 -474t-459 -500t-269 -311.5zM985 539q76 -56 159.5 -160t147.5 -208.5t123 -216.5t88 -175t41 -92q10 60 108 366.5t189 564.5q-489 -59 -856 -79zM2316 2294l4 8q32 32 144.5 107t144.5 88l4 2q9 0 19 -8.5t10 -16.5l-43 -219q0 -14 -14 -14 q-15 0 -15 14v2q1 15 6 49t12.5 79t10.5 62q-47 -28 -128.5 -85t-117.5 -87l-10 -4q-9 0 -18 7.5t-9 15.5z" />
<glyph unicode="&#xc3;" horiz-adv-x="2168" d="M0 621v4q6 54 103 84t206 30h10q312 -9 525 -116q42 55 145 178t254.5 298.5t320.5 356t328.5 337t293.5 256t200 99.5q20 0 33 -10q22 -17 22 -55q0 -41 -24.5 -121t-83.5 -244q-80 -225 -238.5 -621.5t-171.5 -434.5l281 22q60 6 73 6q74 0 74 -39q0 -12 -10 -35 q-6 -12 -21 -12h-4q-18 4 -18 21l2 8q2 7 6 11.5t7 7t3 3.5h-2q-14 7 -37 7q-20 0 -59.5 -5t-50.5 -6q-192 -16 -256 -24q-237 -615 -340 -996q-6 -24 -29 -24q-16 0 -22 14q-38 72 -97.5 197t-102.5 209t-102 185t-127.5 182.5t-146.5 142.5q-7 -1 -143 -7 q-57 -75 -117.5 -160t-137 -202t-134.5 -219.5t-98 -202.5t-40 -162v-6q0 -4 13 -43l2 -6q0 -4 -15 -14h-6q-11 0 -16 8q-8 19 -8 51q0 65 40 166.5t96 201t135 220t136.5 201t120.5 165.5q-222 -12 -342 -12q-111 0 -192 8q-238 18 -238 97zM29 621q0 -28 64 -47.5 t149 -26.5q79 -6 157 -6q59 0 122 2.5t149 7t125 6.5l36 49q-209 105 -516 111h-10q-52 0 -110.5 -8.5t-110 -31.5t-55.5 -54v-2zM825 561l82 2l-55 31zM864 610q71 -37 80 -43q113 6 218.5 13.5t212.5 18.5t166.5 17.5t172.5 20t139 16.5q23 57 424 1094q109 281 109 332 q0 17 -8 20l-13 2q-68 0 -294.5 -205.5t-478.5 -474t-459 -500t-269 -311.5zM985 539q76 -56 159.5 -160t147.5 -208.5t123 -216.5t88 -175t41 -92q10 60 108 366.5t189 564.5q-489 -59 -856 -79zM2236 2294q0 6 9 12q3 2 21 15.5t24.5 18t24 17t27 18t25.5 14.5t26.5 13 t23 7.5t22.5 3.5q11 0 25 -7q19 -10 22.5 -38.5t6.5 -51.5t24 -26h8q32 0 72.5 23.5t66.5 47.5l9 4q7 0 14.5 -7.5t7.5 -14.5q0 -4 -6 -10q-26 -26 -80.5 -54t-91.5 -28l-14 2q-23 5 -34.5 24t-11.5 38.5t-2.5 37.5t-9.5 21q-8 4 -16 4q-51 0 -172 -90q-4 -2 -10 -2 q-11 0 -11 8z" />
<glyph unicode="&#xc4;" horiz-adv-x="2152" d="M0 621v4q3 37 55 64t119 38.5t133 11.5h10q311 -9 527 -116q42 55 145 178t254.5 298.5t320.5 356t328.5 337t293.5 256t200 99.5q20 0 33 -10q22 -17 22 -55q0 -41 -24.5 -121t-83.5 -244q-78 -220 -237 -616t-173 -440l281 22q60 6 73 6q72 0 72 -41q0 -17 -8 -33 q-6 -12 -21 -12h-6q-16 4 -16 23v6q2 6 6 10.5t7 6.5t3 3l-2 2q-14 7 -37 7q-19 0 -59 -5t-49 -6q-194 -17 -258 -24q-230 -597 -338 -996q-3 -11 -12 -17.5t-17 -6.5q-16 0 -22 14q-35 67 -83.5 165.5t-83 171t-83.5 162.5t-94 158.5t-105.5 137.5t-126.5 121l-143 -7 q-74 -96 -154 -211t-170 -258t-147.5 -273t-57.5 -206v-4q3 -18 15 -43v-4q0 -7 -13 -16h-6q-11 0 -16 8q-8 19 -8 51q0 65 40 166.5t96 201t135 220t136.5 201t120.5 165.5q-222 -12 -344 -12q-111 0 -192 8q-236 19 -236 97zM29 621q0 -28 64 -47.5t149 -26.5 q79 -6 157 -6q59 0 122 2.5t149 7t123 6.5l38 49q-212 105 -516 111h-10q-52 0 -110.5 -8.5t-110 -31.5t-55.5 -54v-2zM823 561l84 2l-55 31zM864 610q6 -4 36.5 -19t43.5 -24q113 6 218.5 13.5t212.5 18.5t166.5 17.5t172.5 20t139 16.5q23 57 424 1094q92 247 103 300 q4 20 4 32q0 17 -8 20l-13 2q-54 0 -215.5 -137t-356.5 -336t-394 -414t-343.5 -380t-189.5 -224zM983 539q94 -69 197 -206t179 -276t123.5 -237.5t59.5 -132.5q12 62 111 370t188 561q-497 -60 -858 -79zM2324 2312q0 23 23.5 42.5t42.5 19.5h2q21 0 29 -39v-8 q0 -40 -27 -48q-6 -1 -19 -4.5t-18 -3.5q-19 0 -30 27q-3 6 -3 14zM2505 2290q0 23 21 41t42 18h2q10 0 17.5 -11.5t9.5 -25.5v-8q0 -37 -25 -43q-4 -1 -17 -4.5t-20 -3.5q-17 0 -28 24z" />
<glyph unicode="&#xc5;" horiz-adv-x="2174" d="M0 621v4q6 54 103 84t206 30h10q311 -9 527 -116q53 70 187.5 230t336 385.5t395.5 426t368.5 342t252.5 141.5q20 0 33 -10q24 -18 24 -55q0 -41 -24 -117t-86 -248q-80 -225 -238.5 -621.5t-171.5 -434.5l281 22q60 6 73 6q74 0 74 -41q0 -17 -8 -33q-6 -12 -21 -12h-6 q-18 4 -18 21l2 8q2 7 6 11.5t7 7t3 3.5h-2q-14 7 -37 7q-20 0 -59.5 -5t-48.5 -6q-199 -17 -258 -24q-230 -597 -338 -996q-3 -11 -11.5 -17.5t-17.5 -6.5q-18 0 -24 14q-35 66 -83 165.5t-82 171.5t-83.5 162t-94.5 158t-106 137.5t-127 121.5q-6 -1 -143 -7 q-58 -78 -117 -160.5t-136.5 -201t-135 -220t-98 -202t-40.5 -162.5v-6q0 -4 13 -43l2 -6q0 -5 -13 -14h-6q-13 0 -16 8q-8 19 -8 53q0 79 56 207.5t147 273t168 255t157 216.5q-222 -12 -344 -12q-111 0 -192 8q-238 18 -238 97zM29 621q0 -28 64.5 -47.5t150.5 -26.5 q80 -6 155 -6q59 0 122 2.5t150.5 7t123.5 6.5l36 49q-209 105 -516 111h-10q-86 0 -178.5 -24.5t-97.5 -69.5v-2zM825 561l82 2q-16 12 -55 31zM864 610q71 -37 80 -43q113 6 219 13.5t211.5 18t168 17.5t172 20t140.5 17l422 1094q109 281 109 332q0 17 -8 20l-13 2 q-68 0 -294.5 -205.5t-478.5 -474t-459 -500t-269 -311.5zM985 539q76 -56 159.5 -160t147.5 -208.5t123 -216.5t88 -175t41 -92q10 60 108 366.5t189 564.5q-489 -59 -856 -79zM2429 2279q0 44 33 97q21 33 55 67h-2q-14 0 -14 15q0 14 14 14l20 2l21 -2q18 10 47 14h2 q14 0 14 -14t-16 -14q31 -19 31 -56q0 -48 -39 -90q-75 -84 -125 -84q-41 0 -41 51zM2458 2273q0 -16 14 -16h4q33 7 83 55.5t50 83.5q0 32 -41 37q-42 -26 -76 -78t-34 -82z" />
<glyph unicode="&#xc6;" horiz-adv-x="3424" d="M0 621v4q6 54 103 84t206 30h10q311 -9 527 -116q53 70 187.5 230t336 385.5t395.5 426t368.5 342t252.5 141.5q20 0 33 -10q24 -18 24 -55q0 -28 -14.5 -83t-32 -106t-61.5 -176l-74 -194q127 127 350.5 242.5t444.5 181t368 65.5q42 0 72 -6q113 -19 113 -137 q0 -76 -46.5 -181t-98.5 -177t-75 -80h-4q-24 0 -24 20v6q1 23 16 68t29 67q6 7 22 16t23 9q2 0 2 -2v-4q31 53 45.5 78t36.5 81t22 93q0 80 -90 96q-30 6 -67 6q-118 0 -292 -46t-347 -119.5t-324.5 -177.5t-216.5 -208l-45 -115l-2 -26l4 -39q10 -48 50.5 -82.5 t102.5 -52.5t126.5 -25.5t138.5 -7.5q131 0 225 16h6q15 0 27 -20l2 -10q0 -23 -25 -31q-89 -34 -237 -124.5t-299 -207.5q28 -3 42.5 -12t14.5 -29q0 -17 -8 -33q-6 -12 -21 -12h-6q-16 4 -16 23v6q2 6 6 10.5t7 6.5t3 3l-2 2q-14 7 -33 7l-26 -3q-107 -85 -196.5 -170.5 t-165 -176.5t-118 -181t-42.5 -166q0 -63 28 -112q58 -101 207 -101q105 0 251 48t302 129.5t299 165t284 180t211 146t124 89.5l8 4q6 0 6 -4l2 -4q0 -7 -8 -12q-57 -43 -103.5 -77t-169.5 -119.5t-227 -151.5t-249.5 -150t-266 -139t-247 -94t-220.5 -39q-163 0 -227 114 q-33 59 -33 129q0 147 130 326t335 358q-199 -17 -258 -24q-230 -597 -338 -996q-3 -11 -11.5 -17.5t-17.5 -6.5q-16 0 -22 14q-35 67 -83.5 165.5t-83 171t-83.5 162.5t-94 158.5t-105.5 137.5t-126.5 121q-5 0 -145 -7q-74 -98 -153 -211.5t-169 -257t-147.5 -273.5 t-57.5 -206v-4q0 -4 13 -43l2 -6q0 -5 -13 -14h-6q-11 0 -16 8q-8 19 -8 51q0 65 40 166.5t96 201t135 220t136.5 201t120.5 165.5q-222 -12 -344 -12q-111 0 -192 8q-238 19 -238 97zM31 618q0 -28 63 -46t150 -25q80 -6 157 -6q59 0 122 2.5t149 7t123 6.5l39 49 q-212 105 -519 111h-10q-51 0 -109 -8.5t-109.5 -31.5t-55.5 -54v-5zM825 561l84 2q-33 21 -57 31zM866 610q8 -4 37 -19t43 -24q113 6 218 13.5t212.5 18.5t166 17t174 20t138.5 17q7 18 170.5 440.5t251.5 653.5q109 281 109 332q0 17 -8 20l-13 2q-54 0 -215.5 -137 t-356.5 -336t-394 -414t-343.5 -380t-189.5 -224zM985 539q94 -69 197 -206t179 -276t123.5 -237.5t59.5 -132.5q13 64 112 375t187 556q-495 -59 -858 -79zM1925 662l281 22l2 2q140 116 280.5 212t231.5 142q-99 -6 -119 -6q-73 0 -140.5 8t-136.5 26t-118 54t-66 86 q-202 -503 -215 -546z" />
<glyph unicode="&#xc7;" horiz-adv-x="1587" d="M0 193q0 227 87.5 484t197.5 427q75 115 167.5 225.5t207.5 217t233 186t250.5 128t255.5 48.5l37 -2q65 -4 115 -42.5t77 -99.5q27 -65 27 -143q0 -88 -29.5 -195t-70 -192t-80.5 -148t-64 -77l-8 -2q-18 0 -35.5 10t-17.5 29q0 28 34 65q2 4 13 4q10 0 12 -2 q40 70 77 147t74 192.5t37 197.5q0 177 -170 196q-18 2 -53 2q-112 0 -235.5 -47t-236 -124.5t-223.5 -180t-201 -209.5t-165 -217q-108 -159 -196 -414t-88 -477q0 -119 28.5 -214t98 -171.5t178.5 -113.5q59 -19 112 -19q113 0 250 62.5t260.5 154.5t250 211t216 219 t160.5 191q11 14 23 14l6 -2q4 -4 4 -8q0 -10 -8 -21q-65 -92 -158.5 -198.5t-219 -222t-253.5 -208t-269 -152.5t-259 -60q-66 0 -125 20l-12 4t-15 4q-10 -11 -23.5 -28t-17.5 -21q43 -14 43 -72q0 -27 -8 -43q-23 -47 -80 -47q-35 0 -61 23q-7 7 -7 12q0 8 7 8q6 0 10 -4 q17 -14 45 -14q27 0 47.5 16.5t21.5 48.5q0 22 -8 32t-30 18h-3q-12 0 -12 10q0 5 6 14q22 31 49 58q-276 121 -276 512z" />
<glyph unicode="&#xc8;" horiz-adv-x="1734" d="M0 -33q0 80 42.5 174.5t113 185.5t162 184t189 174t194.5 152.5t177.5 122.5t139.5 80q-66 -4 -119 -4q-77 0 -147 8t-141.5 28t-119.5 60t-59 97q-4 28 -4 43q0 88 69.5 181.5t181 173t253 152.5t284.5 123.5t276 80.5t228 30q42 0 72 -6q113 -19 113 -137 q0 -77 -46.5 -182t-98 -176.5t-74.5 -79.5h-5q-24 0 -24 24v2q3 26 18 70.5t29 64.5q6 7 22 16t23 9q2 0 2 -2v-4q104 169 104 250q0 82 -92 98q-20 4 -67 4q-90 0 -216.5 -28t-262 -75t-269.5 -114.5t-240 -142t-171.5 -161.5t-65.5 -169q0 -15 4 -39q10 -48 50.5 -82.5 t102.5 -52.5t126.5 -25.5t138.5 -7.5q131 0 225 16h6q17 0 25 -20l2 -12q0 -20 -23 -29q-69 -26 -174.5 -87.5t-228.5 -146.5t-246 -190.5t-223 -211.5t-162.5 -218t-62.5 -203q0 -63 28 -112q58 -101 207 -101q124 0 312.5 72t359 166.5t357 215t282 188.5t158.5 116l10 4 q6 0 6 -4l2 -4q0 -7 -8 -12q-57 -43 -103.5 -77t-169.5 -119.5t-227 -151.5t-249.5 -150t-266 -139t-247 -94t-220.5 -39q-165 0 -229 114q-33 59 -33 129zM1577 2423q0 14 10.5 27.5t22.5 13.5l6 -2q22 -6 34.5 -21t12.5 -31v-6q6 -6 40 -43t57.5 -61t41.5 -39q6 -6 6 -12 q0 -8 -5.5 -13.5t-12.5 -5.5q-8 0 -12 4q-9 8 -59.5 49.5t-83 71t-54.5 55.5q-4 4 -4 13z" />
<glyph unicode="&#xc9;" horiz-adv-x="1730" d="M0 -33q0 80 42.5 174.5t113 185.5t162 184t189 174t194.5 152.5t177.5 122.5t139.5 80q-66 -4 -119 -4q-77 0 -147 8t-141.5 28t-119.5 60t-59 97q-4 28 -4 43q0 88 69 181.5t180.5 173t253 152.5t284.5 123.5t276.5 80.5t228.5 30q42 0 72 -6q113 -19 113 -137 q0 -77 -46.5 -182t-98 -176.5t-74.5 -79.5h-5q-24 0 -24 22v4q3 25 17.5 69.5t27.5 65.5q6 7 22.5 16t22.5 9l4 -2l-2 -4q31 53 45.5 78t36.5 81t22 93q0 80 -90 96q-20 4 -67 4q-90 0 -216.5 -28t-262.5 -75.5t-270 -115.5t-240 -142.5t-172 -161.5t-66 -169l4 -37 q10 -48 50.5 -82.5t103 -52.5t127.5 -25.5t139 -7.5q129 0 223 16h6q19 0 27 -20l2 -10q0 -22 -23 -31q-69 -26 -175 -87.5t-229 -146.5t-246 -190.5t-222.5 -211.5t-162 -218t-62.5 -203q0 -63 28 -112q58 -101 205 -101q105 0 251 48t302 129.5t299 165t284 180t211 146 t124 89.5l10 4l6 -4l2 -4q0 -7 -8 -12q-917 -676 -1375 -759q-59 -11 -110 -11q-163 0 -227 114q-33 59 -33 129zM1653 2208q0 13 12 16q51 17 180 86q3 16 20 27.5t40 11.5h4q11 -1 18.5 -14t7.5 -27q0 -17 -10 -22q-31 -16 -72 -32t-102 -38t-74 -27l-6 -2q-7 0 -12.5 6.5 t-5.5 14.5z" />
<glyph unicode="&#xca;" horiz-adv-x="1730" d="M0 -31q0 80 42.5 174.5t113 185.5t162 184t189 174t194.5 152t177.5 121.5t139.5 79.5q-62 -4 -115 -4q-77 0 -148 8.5t-143.5 28.5t-121.5 60t-60 96q-4 28 -4 41q0 89 69.5 183t181 174.5t253 153t285 123.5t277 81t228.5 30q42 0 72 -6q113 -19 113 -137 q0 -77 -46.5 -182t-98 -176.5t-74.5 -79.5h-5q-24 0 -24 22v2q3 26 17.5 71t27.5 66q6 7 22.5 16t22.5 9l4 -2l-2 -4q31 53 45.5 78t36.5 81t22 93q0 80 -90 96q-20 4 -67 4q-90 0 -216.5 -28t-262.5 -75.5t-270 -115.5t-240 -142.5t-172 -161.5t-66 -169l4 -37 q10 -48 50.5 -82.5t102.5 -52.5t126.5 -25.5t138.5 -7.5q131 0 225 16h6q19 0 27 -20l2 -10q0 -22 -23 -31q-69 -26 -175 -87.5t-229 -146.5t-246 -190.5t-222.5 -211.5t-162 -218t-62.5 -203q0 -63 28 -112q59 -103 207 -103q90 0 215.5 39t244.5 94t266 139t249.5 148 t227.5 150t167 116t99 72q4 4 10 4q4 0 6 -2l2 -6q0 -7 -8 -12q-262 -189 -409 -286q-718 -473 -1063 -482h-13q-163 0 -227 114q-33 59 -33 129zM1651 2173q0 4 4 8q31 33 143.5 109t145.5 88h4q8 0 18 -8t10 -15l-43 -221q0 -12 -14 -12t-14 14v2q4 63 28 191 q-49 -31 -130.5 -88.5t-116.5 -86.5l-9 -4q-9 0 -17.5 7.5t-8.5 15.5z" />
<glyph unicode="&#xcb;" horiz-adv-x="1734" d="M0 -31q0 80 42.5 174.5t113 185.5t162 184t189 174t194.5 152t177.5 121.5t139.5 79.5q-62 -4 -115 -4q-77 0 -147.5 8.5t-143 28.5t-121.5 60t-61 96q-4 28 -4 41q0 89 69.5 183t181 174.5t253 153t285 123.5t277 81t228.5 30q42 0 72 -6q113 -19 113 -137 q0 -77 -46.5 -182t-98 -176.5t-74.5 -79.5h-5q-24 0 -24 22v2q3 26 17.5 71t27.5 66q6 7 22.5 16t22.5 9l4 -2l-2 -4q31 53 45.5 78t36.5 81t22 93q0 80 -90 96q-20 4 -67 4q-90 0 -216.5 -28t-262 -75t-269.5 -114.5t-240 -142t-171.5 -161.5t-65.5 -169q0 -15 4 -39 q10 -48 50 -82.5t102 -52.5t126.5 -25.5t139.5 -7.5q131 0 225 16h6q17 0 25 -20l2 -10q0 -22 -23 -31q-69 -26 -175 -87.5t-229 -146.5t-246 -190.5t-222.5 -211.5t-162 -218t-62.5 -203q0 -63 28 -112q59 -103 207 -103q90 0 214.5 38.5t247 95t264.5 137.5t251.5 150 t225.5 148.5t168.5 117.5t97.5 71q4 4 10 4q4 0 6 -2l2 -6q0 -7 -8 -12q-262 -190 -409 -286q-717 -473 -1061 -482h-13q-165 0 -229 114q-33 59 -33 129zM1626 2224q0 23 23.5 43.5t42.5 20.5q12 0 20 -11.5t10 -27.5v-13q0 -37 -26 -43q-35 -10 -39 -10q-18 0 -29 27 q-2 4 -2 14zM1808 2204q0 22 20.5 39.5t39.5 17.5h4q22 0 26 -37l3 -10q0 -14 -7.5 -26t-19.5 -15q-4 -1 -17 -4.5t-20 -3.5q-19 0 -27 24q-2 4 -2 15z" />
<glyph unicode="&#xcc;" horiz-adv-x="1239" d="M0 -260q0 11 10 14q56 13 231 30.5t363 27.5v4q0 35 16 98.5t40.5 135t60.5 163.5t68.5 169.5t73 169.5t65.5 146.5t53.5 117.5t30.5 67q49 186 49 334q0 90 -19.5 162.5t-52 119.5t-75 83t-89.5 56.5t-93.5 35.5t-89 24.5t-75 19.5t-52 24.5t-19.5 35.5q1 41 144.5 82 t351 69.5t348 44.5t225.5 23q30 46 59 84q8 8 23 8l10 -2q8 -3 8 -14l-4 -17q-4 -6 -18.5 -23.5t-24.5 -33.5q120 8 258 8q356 0 410 -76l2 -8q0 -13 -11 -20q-10 -5 -12 -5q-8 0 -14 9q-1 1 -4.5 10t-8.5 13.5t-14 8.5q-106 50 -387 50q-111 0 -231 -9 q-141 -230 -549 -1110q-17 -141 -132 -465t-214 -550l-23 -39l119 2h84q302 0 366 -45q9 -6 9 -13l-4 -10q-3 -6 -11 -6l-10 4q-74 53 -377 53q-64 0 -190 -4q-22 -28 -35 -28h-6l-10 2q-12 6 -17 22q-225 -12 -424 -35q-57 -6 -164 -32h-4q-11 0 -14 10v4zM524 1780 q0 -17 27.5 -27.5t74.5 -20t100.5 -23t116 -44.5t109.5 -76q150 -143 150 -381q0 -82 -17 -176q169 364 278 586t189 354q-74 -5 -216.5 -19t-334.5 -38.5t-331.5 -60t-145.5 -72.5v-2zM625 -188l41 2q11 16 24 49q74 168 158 425t127 433q-50 -113 -111.5 -255t-148 -366.5 t-90.5 -287.5zM625 -205q4 -8 8 -8h2q4 0 16 8h-26zM1657 2451q0 14 12 27.5t25 13.5h4q22 -6 34.5 -20.5t12.5 -30.5v-6q6 -6 40 -43t57.5 -61t41.5 -39q6 -6 6 -15q0 -6 -5.5 -12t-12.5 -6q-4 0 -12 4q-4 4 -86.5 73.5t-112.5 102.5q-4 8 -4 12z" />
<glyph unicode="&#xcd;" horiz-adv-x="1294" d="M0 -260q0 11 10 14q56 13 231 30.5t365 27.5v4q0 69 53 226.5t136.5 352t130 296.5t88.5 192q49 183 49 331q0 101 -24.5 180t-64 127t-90.5 83.5t-104.5 53t-104.5 32t-90.5 23.5t-64 25.5t-24.5 39.5q1 41 144.5 82t351 69.5t349.5 44.5t226 23q31 52 59 84q5 8 21 8 l10 -2q8 -3 8 -14l-4 -17q-4 -8 -19 -25t-24 -32q120 8 258 8q356 0 410 -76l2 -8q0 -13 -11 -20q-10 -5 -12 -5q-8 0 -14 9q-1 2 -4.5 10t-8 13t-12.5 9q-106 50 -389 50q-111 0 -231 -9q-141 -230 -549 -1110q-17 -143 -133.5 -472t-212.5 -543q-21 -36 -23 -39l119 2h84 q302 0 369 -45q6 -3 6 -11q0 -4 -4 -12q-3 -6 -11 -6l-10 4q-74 53 -375 53q-64 0 -190 -4q-25 -28 -37 -28h-6l-10 2q-12 6 -17 22q-225 -12 -424 -35q-40 -4 -164 -32h-4q-11 0 -14 10v4zM526 1778q0 -16 27.5 -26.5t74.5 -20t100 -23t115 -44.5t109 -75 q150 -143 150 -381q0 -82 -17 -176q122 260 182.5 387t145 294.5t139.5 258.5q-74 -5 -216.5 -19t-334.5 -38.5t-330.5 -60t-144.5 -72.5v-4zM625 -188l41 2l26 49q73 169 157 426.5t126 431.5q-50 -113 -111.5 -255t-148 -366.5t-90.5 -287.5zM627 -205q0 -8 6 -8h2 q4 0 16 8h-24zM1536 2234q0 14 12 17q52 19 183 86q2 15 18 27t39 12h4q11 -1 19 -14t8 -27q0 -17 -11 -23q-30 -16 -71.5 -32.5t-100 -37t-75.5 -26.5l-7 -2q-7 0 -12.5 6t-5.5 14z" />
<glyph unicode="&#xce;" horiz-adv-x="1228" d="M0 -260q0 10 12 14q54 13 229 30.5t365 27.5v4q0 69 53 226.5t136.5 352t130 296.5t88.5 192q49 186 49 334q0 114 -31.5 200t-81.5 134t-110 80t-120.5 47.5t-110.5 27.5t-81.5 29t-31.5 43q1 41 144.5 82t351 69.5t349.5 44.5t226 23q41 63 59 84q5 8 21 8l10 -2 q8 -3 8 -14l-4 -17q-4 -8 -19 -25t-24 -32q120 8 258 8q356 0 410 -76q4 -4 4 -10q0 -9 -13 -18q-10 -5 -12 -5q-9 0 -12 9q-2 3 -6 10.5t-8.5 12.5t-12.5 9q-106 50 -389 50q-111 0 -231 -9q-149 -246 -549 -1110q-17 -143 -133.5 -472t-212.5 -543q-9 -22 -23 -39l119 2 h84q302 0 369 -45q6 -6 6 -13q0 -6 -4 -10q-3 -6 -11 -6l-8 4q-74 53 -377 53q-64 0 -190 -4q-25 -28 -35 -28h-6l-12 2q-12 6 -15 22q-226 -12 -426 -35q-40 -4 -164 -32h-4q-11 0 -14 10v4zM526 1778q0 -16 27.5 -26.5t74.5 -20t100.5 -23t115.5 -44.5t108 -75 q150 -143 150 -381q0 -82 -17 -176q122 260 182.5 387t145 294.5t139.5 258.5q-74 -5 -215.5 -19t-333.5 -38.5t-331.5 -60t-145.5 -72.5v-4zM625 -188l41 2q16 24 26 49q73 169 157 426.5t126 431.5q-50 -113 -111.5 -255t-148 -366.5t-90.5 -287.5zM627 -205q0 -8 6 -8h2 q4 0 16 8h-24zM1559 2224q0 4 4 8q31 32 142.5 108t143.5 89h4q9 0 20 -8.5t11 -14.5l-43 -221q0 -12 -14 -12q-15 0 -15 12v2q3 56 29 193q-47 -29 -128.5 -86.5t-119.5 -87.5l-8 -4q-9 0 -17.5 7t-8.5 15z" />
<glyph unicode="&#xcf;" horiz-adv-x="1251" d="M0 -260q0 11 10 14q54 13 229 30.5t365 27.5v4q0 69 53 226.5t136.5 352t130 296.5t88.5 192q49 186 49 334q0 90 -19.5 162.5t-52 119.5t-75 83t-89.5 56.5t-93.5 35.5t-89 24.5t-75 19.5t-52 24.5t-19.5 35.5q0 41 143.5 82t350.5 69.5t349 44.5t226 23q30 46 59 84 q5 8 21 8l10 -2q8 -3 8 -14l-4 -17q-4 -8 -19 -25t-24 -32q123 8 260 8q356 0 410 -76l2 -8q0 -13 -13 -20q-10 -5 -12 -5q-9 0 -12 9q-2 3 -6 10.5t-8.5 12.5t-12.5 9q-106 50 -389 50q-111 0 -231 -9q-131 -217 -549 -1110q-17 -143 -133.5 -472t-212.5 -543 q-9 -22 -23 -39l119 2h84q301 0 368 -45q7 -7 7 -15q0 -6 -2 -8q-6 -6 -11 -6q-2 0 -10 4q-74 53 -377 53q-64 0 -190 -4q-25 -28 -35 -28h-6l-12 2q-13 9 -15 22q-217 -12 -426 -35q-40 -4 -164 -32h-4q-9 0 -12 10v4zM524 1778q0 -16 27.5 -26.5t75 -20t101 -23 t115.5 -44.5t109 -75q150 -143 150 -379q0 -74 -19 -178q122 260 182.5 387t145 294.5t139.5 258.5q-74 -5 -215.5 -19t-333.5 -38.5t-331.5 -60t-145.5 -72.5v-4zM625 -188l39 2q16 24 26 49q74 171 158.5 428.5t126.5 429.5q-342 -767 -350 -909zM625 -205q4 -8 6 -8h4 q6 0 14 8h-24zM1548 2226q0 23 22 42.5t42 19.5h4q11 0 19 -11t10 -26l2 -13q0 -15 -7.5 -27.5t-19.5 -15.5q-35 -10 -39 -10q-19 0 -31 29zM1731 2206q0 22 21 39.5t40 17.5h2q23 0 27 -37l2 -12q0 -33 -27 -39q-4 -1 -17 -4.5t-20 -3.5q-18 0 -26 24q-2 4 -2 15z" />
<glyph unicode="&#xd0;" horiz-adv-x="1988" d="M0 -82l2 6q84 331 303 871l113 266q-162 -6 -326 -21h-2q-6 0 -10 6.5t-4 14.5t4 14t10 6q7 1 34 9t38 8q13 0 16 -8q147 10 258 10q190 421 406 798q10 15 10 33l-2 23q0 10 6 28q17 45 51 91.5t74.5 94.5t58.5 77q18 18 45 18l13 -2q10 -5 10 -20t-6 -21 q-369 -572 -602 -1120q34 0 104 -4q98 164 196.5 306t217.5 281t234 237.5t243 161.5t248 68h18q320 0 320 -417q0 -171 -55 -397t-119 -392.5t-119 -267.5h35q191 0 243 -64l5 -10l-5 -10l-10 -4q-6 0 -12 6q-47 63 -225 63h-39q-78 -140 -170 -266t-205 -242t-235.5 -206 t-264.5 -154.5t-289 -91.5q-68 -12 -122 -12q-165 0 -213 102q-15 38 -15 70q0 99 87 218.5t239 213.5q251 157 567.5 262.5t585.5 120.5q49 89 112.5 255.5t120 397.5t56.5 401q0 84 -14.5 150t-45.5 118.5t-85 80.5t-128 28h-16q-114 -4 -237 -64t-234 -154.5t-226 -228 t-211 -269t-192 -293.5q175 -12 305 -52q11 -3 11 -14q0 -14 -15 -14h-4q-126 39 -317 45q-189 -313 -373 -703q-88 -191 -189 -444q-9 -18 -30 -18l-13 2q-20 7 -20 22zM221 369q170 369 363 692h-101q-126 -293 -262 -692zM285 -137q0 -38 14 -70q39 -86 197 -86 q64 0 116 10q142 26 279 89.5t254.5 151t227.5 201.5t199 236t167 258q-263 -20 -574.5 -124t-562.5 -253q-49 -29 -102.5 -74.5t-102.5 -100.5t-80.5 -119t-31.5 -119z" />
<glyph unicode="&#xd1;" horiz-adv-x="1691" d="M0 -2q39 174 324 758q349 718 550 1048q1 2 2 15.5t4 27t11 17.5l12 4q17 0 17 -39q0 -14 -2.5 -32t-2.5 -19q-6 -41 -44.5 -264.5t-74 -442t-66 -495t-30.5 -463.5q0 -396 134 -396h12q63 8 143.5 89.5t158 200.5t160 274t146.5 293t121 274q132 315 220 593t97 410v2 q0 9 -9 26t-9 24v8q0 20 11.5 32.5t27.5 12.5q31 0 37 -43l2 -23q0 -219 -350 -1054q-36 -86 -75.5 -174.5t-96.5 -206t-112.5 -220.5t-121.5 -206.5t-125.5 -177.5t-122 -120t-114.5 -46q-23 0 -46 10q-129 59 -129 475q0 156 21 377q27 302 82 631t102 542 q-253 -441 -516 -970q-115 -228 -194.5 -434.5t-98.5 -325.5q-3 -13 -20 -13q-12 0 -23.5 6t-11.5 13v2zM1253 2173q0 5 7 12q6 4 24.5 17.5t28.5 20.5t28.5 19.5t31 19t28 14t29 11t24.5 3.5q15 0 27 -6q19 -9 22 -37.5t6.5 -52.5t24.5 -27h8q50 0 139 71l9 5q8 0 15 -7 t7 -14q0 -6 -6 -12q-25 -25 -80 -52.5t-92 -27.5l-14 2q-23 5 -34.5 24t-11.5 38t-2.5 37t-9.5 22l-16 4q-53 0 -172 -90l-10 -4q-11 0 -11 10z" />
<glyph unicode="&#xd2;" horiz-adv-x="1314" d="M0 53q0 170 51 370t109 349q-29 57 -29 135q0 81 30 181.5t76.5 193.5t96.5 172t98 137q128 159 285 253.5t330 94.5l55 -2q303 -27 303 -399q0 -126 -34.5 -284.5t-88.5 -305t-104 -261.5t-95 -198q-122 -223 -262 -401t-289.5 -288.5t-273.5 -110.5q-43 0 -74 10 q-184 57 -184 354zM29 33q0 -265 161 -314q33 -10 66 -10q88 0 193 63.5t208.5 173.5t203.5 252.5t188 305.5q44 80 94 193.5t105 260t90.5 304t35.5 280.5q0 343 -274 367l-51 2q-167 0 -323 -91t-280 -243q-62 -78 -125.5 -186t-115 -245.5t-51.5 -240.5q0 -61 20 -108 q299 737 586 954q14 12 41 12q22 0 28 -6q21 -15 21 -35q0 -23 -25 -39q-6 -4 -18 -4h-12q-13 0 -19 -6q-157 -154 -319.5 -413.5t-257.5 -503.5q17 -25 26 -29q11 -4 11 -14l-5 -11q-4 -4 -12 -4l-12 2q-5 4 -12.5 14t-8.5 11q-54 -136 -105.5 -332.5t-51.5 -359.5z M1155 2202q0 12 12 25.5t25 13.5h4q22 -6 34.5 -21t12.5 -31v-6q6 -6 40 -43t57.5 -61t41.5 -39q7 -7 7 -12q0 -8 -5.5 -13.5t-13.5 -5.5t-12 4q-12 10 -60.5 50t-82 70t-56.5 56q-4 4 -4 13z" />
<glyph unicode="&#xd3;" horiz-adv-x="1314" d="M0 53q0 169 51 370t109 349q-29 57 -29 135q0 81 30 181.5t76.5 193.5t96.5 172t98 137q128 159 285 253.5t330 94.5l55 -2q303 -27 303 -399q0 -126 -34.5 -284.5t-88.5 -305t-104 -261.5t-95 -198q-122 -223 -262 -401t-290 -288.5t-275 -110.5q-43 0 -74 10 q-182 57 -182 354zM29 33q0 -265 161 -314q33 -10 66 -10q88 0 193 63.5t208.5 173.5t203.5 252.5t188 305.5q44 80 94 193.5t105 260t90.5 304t35.5 280.5q0 343 -274 367l-51 2q-167 0 -323 -91t-280 -243q-62 -78 -125.5 -186t-115 -245.5t-51.5 -240.5q0 -61 20 -108 q299 737 586 954q14 12 41 12q22 0 28 -6q21 -15 21 -35q0 -23 -25 -39q-6 -4 -18 -4h-12q-13 0 -19 -6q-157 -154 -319.5 -413.5t-257.5 -503.5q7 -22 26 -29q11 -4 11 -14l-5 -11q-4 -4 -12 -4l-12 2q-5 4 -12.5 14t-8.5 11q-54 -136 -105.5 -332.5t-51.5 -359.5z M1063 2075q0 13 12 16q48 18 182 86q2 15 18.5 27t39.5 12h4q11 -1 19 -14t8 -27q0 -17 -11 -23q-30 -16 -70.5 -32t-100 -37.5t-74.5 -26.5l-7 -2q-8 0 -14 7t-6 14z" />
<glyph unicode="&#xd4;" horiz-adv-x="1327" d="M0 53q0 170 51 369t111 350q-29 57 -29 135q0 81 30 181.5t76.5 193.5t96.5 172t98 137q128 159 285 253.5t330 94.5l55 -2q303 -27 303 -399q0 -126 -34.5 -284.5t-88.5 -305t-104 -261.5t-95 -198q-122 -223 -262 -401t-290 -288.5t-275 -110.5q-43 0 -74 10 q-184 58 -184 354zM31 31q0 -263 159 -312q33 -10 66 -10q118 0 262 111t278.5 287.5t254.5 396.5q44 80 94 193.5t105 260t90.5 304t35.5 280.5q0 343 -274 367l-51 2q-167 0 -322 -91t-280 -243q-62 -78 -125.5 -186.5t-115.5 -246.5t-52 -241q0 -59 18 -106 q298 734 588 954q14 12 41 12q22 0 28 -6q21 -15 21 -35q0 -23 -25 -39q-6 -4 -18 -4h-12q-13 0 -19 -6q-157 -154 -319.5 -413.5t-259.5 -503.5q16 -25 28 -29q11 -4 11 -14l-5 -11q-4 -4 -12 -4l-12 2q-5 4 -12.5 14t-8.5 11q-54 -136 -105.5 -333t-51.5 -361zM1094 2073 q0 6 2 8q33 33 144.5 108.5t143.5 87.5h5q8 0 18 -8t10 -14l-41 -221q0 -13 -16 -13q-14 0 -14 13v2q1 10 28 192q-50 -31 -130.5 -88t-115.5 -86l-10 -4q-8 0 -16 8t-8 15z" />
<glyph unicode="&#xd5;" horiz-adv-x="1333" d="M0 53q0 168 51.5 368t110.5 351q-29 57 -29 135q0 81 30 181.5t76.5 193.5t96.5 172t98 137q128 159 285 253.5t330 94.5l55 -2q303 -27 303 -399q0 -126 -34.5 -284.5t-88.5 -305t-104 -261.5t-95 -198q-122 -223 -262 -401t-290 -288.5t-275 -110.5q-43 0 -74 10 q-184 58 -184 354zM31 31q0 -263 159 -312q33 -10 66 -10q118 0 262 111t278.5 287.5t254.5 396.5q44 80 94 193.5t105 260t90.5 304t35.5 280.5q0 343 -274 367l-51 2q-167 0 -322 -91t-280 -243q-62 -78 -125.5 -186.5t-115.5 -246.5t-52 -241q0 -59 18 -106 q304 739 588 954q14 12 41 12q22 0 28 -6q21 -15 21 -35q0 -23 -25 -39q-6 -4 -18 -4h-12q-13 0 -19 -6q-157 -154 -319.5 -413.5t-257.5 -503.5q7 -22 26 -29q11 -4 11 -14l-5 -11q-4 -4 -12 -4l-12 2q-5 4 -12.5 14t-8.5 11q-54 -136 -105.5 -333t-51.5 -361zM967 2091 q0 6 6 12q6 4 28.5 20.5t34 24.5t33 21.5t36 20.5t31.5 12.5t31 5.5q15 0 27 -6q19 -9 22 -37t6.5 -51.5t24.5 -26.5h8q45 0 140 70q4 4 10 4t12 -6.5t6 -12.5t-6 -12q-24 -26 -78.5 -54t-91.5 -28l-16 2q-22 5 -33 24t-11 38.5t-2 37.5t-9 21q-8 4 -17 4q-48 0 -174 -90 l-8 -4q-10 0 -10 10z" />
<glyph unicode="&#xd6;" horiz-adv-x="1314" d="M0 55q0 169 51 368.5t109 348.5q-29 57 -29 135q0 81 30 181.5t76.5 193.5t96.5 172t98 137q128 159 285 253.5t330 94.5l55 -2q303 -27 303 -399q0 -126 -34.5 -284.5t-88.5 -305t-104 -261.5t-95 -198q-122 -223 -262 -401t-289.5 -288.5t-273.5 -110.5q-43 0 -74 10 q-184 58 -184 356zM29 31q0 -263 161 -312q33 -10 66 -10q88 0 193 63.5t208.5 173.5t203.5 252.5t188 305.5q44 80 94 193.5t105 260t90.5 304t35.5 280.5q0 343 -274 367l-51 2q-167 0 -323 -91t-280 -243q-62 -77 -125 -186t-114 -246.5t-51 -239.5q0 -59 18 -108 q299 737 586 954q14 12 41 12q22 0 28 -6q21 -15 21 -35q0 -23 -23 -39q-6 -4 -18 -4h-12q-15 0 -21 -6q-157 -154 -319.5 -413.5t-257.5 -503.5q17 -25 26 -29q11 -4 11 -14l-5 -11q-4 -4 -12 -4l-12 2q-5 4 -12.5 14t-8.5 11q-32 -85 -63 -181t-62.5 -247.5t-31.5 -265.5z M1028 2107q0 23 22 42.5t42 19.5h4q24 0 28 -39l2 -12q0 -34 -26 -41q-39 -11 -41 -11q-18 0 -29 27q-2 4 -2 14zM1210 2087q0 22 21.5 39.5t40.5 17.5h2q22 0 26 -37l3 -12q0 -33 -27 -39q-4 -1 -17 -4.5t-20 -3.5q-19 0 -27 25q-2 4 -2 14z" />
<glyph unicode="&#xd8;" horiz-adv-x="1495" d="M0 -356l2 8q3 6 125 217q-25 76 -25 186q0 169 51 368.5t109 348.5q-29 57 -29 135q0 81 30 181t77.5 193t97.5 172t97 138q128 160 284.5 254t329.5 94l55 -2q132 -11 207 -90l88 101q-8 11 -8 22q0 20 19.5 38.5t35.5 25.5q2 2 10 2q10 0 19.5 -8t9.5 -17q0 -6 -2 -8 q-78 -94 -145 -188q69 -101 69 -277q0 -126 -34.5 -284t-88 -304.5t-103.5 -261t-95 -199.5q-122 -223 -262 -401t-290 -288.5t-274 -110.5q-42 0 -73 10q-99 28 -146 131l-114 -195q-8 -8 -13 -8q-6 0 -10 5.5t-4 11.5zM133 33q0 -84 12 -133q63 107 148 248t141 232 t174 281t156 252q383 614 627 910q-68 74 -189 86l-51 2q-167 0 -322 -91t-280 -243q-103 -129 -198 -326t-95 -346q0 -61 20 -108q299 737 586 954q14 12 41 12q23 0 29 -6q20 -14 20 -35q0 -24 -24 -39q-4 -4 -19 -4h-10q-14 0 -20 -6q-157 -154 -320 -414t-258 -503 q16 -24 27 -29q10 -3 10 -14l-4 -11q-4 -4 -12 -4l-13 2q-5 4 -12 14t-8 11q-55 -145 -105.5 -337t-50.5 -355zM158 -143q37 -110 135 -138q33 -10 65 -10q88 0 193 63.5t208.5 173.5t203.5 252.5t188 305.5q43 79 94 192.5t105.5 259.5t90.5 304t36 282q0 154 -60 246 q-549 -736 -1259 -1931z" />
<glyph unicode="&#xd9;" horiz-adv-x="1759" d="M0 -35q0 179 90.5 482t210.5 581t237 499t171 265q6 6 20 6q12 0 21 -6q12 -6 12 -23q0 -11 -6 -14q-65 -53 -186 -275.5t-239 -495.5t-206 -562.5t-88 -454.5q0 -166 90 -186q14 -4 43 -4q92 0 224.5 77.5t275.5 203t305 296t308.5 345t289.5 360.5q113 251 218.5 441 t180.5 274q33 36 58 36q20 0 20 -24q0 -27 -22 -64q-22 -38 -72 -125t-88.5 -153t-83.5 -142t-77.5 -128t-49.5 -74q-74 -165 -142.5 -343t-137.5 -390.5t-110.5 -424t-41.5 -376.5q0 -99 14 -170v-4q0 -10 -10 -13h-4q-12 0 -15 13q-16 88 -16 211q0 284 92.5 639 t233.5 684q-181 -229 -364 -432t-368.5 -378.5t-351.5 -278.5t-278 -103q-26 0 -47 6q-111 25 -111 225zM1397 2179q0 12 12 25.5t25 13.5h4q21 -6 33 -20.5t12 -32.5v-6q11 -11 63.5 -67.5t75.5 -76.5q6 -6 6 -12q0 -7 -5 -12.5t-13 -5.5q-3 0 -11 4q-19 17 -62.5 53 t-78.5 67.5t-57 55.5q-4 4 -4 14z" />
<glyph unicode="&#xda;" horiz-adv-x="1759" d="M0 -35q0 145 59.5 373t149.5 459.5t188 446.5t183 364t127 184q6 6 20 6q15 0 21 -6q14 -6 14 -23q0 -11 -6 -14q-65 -53 -186 -275.5t-239.5 -495.5t-207 -562.5t-88.5 -454.5q0 -166 90 -186q14 -4 43 -4q92 0 224.5 77.5t275.5 203t305.5 296t309 344.5t290.5 361 q113 251 218.5 441t180.5 274q33 36 58 36q20 0 20 -24q0 -22 -22 -64l-72 -124l-90 -155t-82 -140t-78.5 -129.5t-48.5 -73.5q-74 -165 -142.5 -343t-137.5 -390.5t-110.5 -424t-41.5 -376.5q0 -99 14 -170q0 -14 -12 -17h-4q-12 0 -15 13q-16 88 -16 211q0 284 93 638.5 t235 684.5q-143 -181 -287.5 -346.5t-299.5 -322t-293 -271t-265 -183.5t-217 -69q-26 0 -47 6q-111 25 -111 225zM1278 2046q0 14 10 16q48 18 182 86q3 16 20 27.5t40 11.5h4q10 -1 18.5 -14t8.5 -27q0 -16 -13 -22q-39 -21 -137 -56.5t-108 -39.5l-7 -3q-18 0 -18 21z " />
<glyph unicode="&#xdb;" horiz-adv-x="1759" d="M0 -35q0 179 91 482t211 581t236.5 499t170.5 265q6 6 20 6q15 0 21 -6q12 -6 12 -25q0 -10 -4 -12q-65 -53 -186 -275.5t-239.5 -495.5t-207 -562.5t-88.5 -454.5q0 -166 90 -186q14 -4 43 -4q92 0 224.5 77.5t275.5 203t305.5 296t309 344.5t290.5 361q243 541 397 715 q33 36 58 36q20 0 20 -24q0 -27 -22 -64q-312 -546 -371 -622q-74 -168 -141.5 -345t-136.5 -390.5t-110.5 -425.5t-41.5 -377q0 -90 12 -166v-4q0 -10 -10 -13h-4q-12 0 -15 13q-16 88 -16 211q0 284 93 638.5t235 684.5q-143 -181 -287.5 -346.5t-300 -322t-293 -271 t-265 -183.5t-218.5 -69q-26 0 -47 6q-111 26 -111 225zM1272 1987q0 6 2 8q32 32 144 106.5t145 87.5l4 2q9 0 18.5 -8t9.5 -16l-43 -219q0 -15 -14 -15t-14 15v2q0 8 28 190q-47 -28 -127 -85t-118 -89l-9 -2q-10 0 -18 7.5t-8 15.5z" />
<glyph unicode="&#xdc;" horiz-adv-x="1759" d="M0 -35q0 179 91 482t211 581t236.5 499t170.5 265q6 6 20 6q15 0 21 -6q12 -6 12 -25q0 -10 -4 -12q-65 -53 -186 -275.5t-239.5 -495.5t-207 -562.5t-88.5 -454.5q0 -166 90 -186q14 -4 43 -4q92 0 224.5 77.5t275.5 203t305 296t308.5 345t289.5 360.5 q116 255 220.5 443.5t178.5 271.5q33 36 58 36q20 0 20 -24q0 -27 -22 -64q-312 -546 -371 -622q-74 -168 -141.5 -345t-136.5 -390.5t-110.5 -425.5t-41.5 -377q0 -90 12 -166v-4q0 -10 -10 -13h-4q-12 0 -15 13q-16 88 -16 211q0 284 93 638.5t235 684.5 q-182 -230 -365 -432.5t-369 -378t-352 -278.5t-278 -103q-26 0 -47 6q-111 26 -111 225zM1315 2034q0 23 23 43t42 20q12 0 20.5 -11.5t10.5 -27.5l2 -12q0 -15 -7.5 -27.5t-19.5 -15.5q-35 -10 -38 -10q-20 0 -31 28zM1497 2013q0 22 20 40t39 18h5q22 0 26 -37l2 -11 q0 -31 -26 -41q-4 -1 -17 -4.5t-20 -3.5q-19 0 -27 25q-2 4 -2 14z" />
<glyph unicode="&#xdd;" horiz-adv-x="1380" d="M0 545q0 174 109 463q100 260 256 526.5t301 425.5q6 6 22 6t30.5 -8.5t14.5 -24.5q0 -11 -8 -24q-61 -106 -151 -229.5t-175 -211.5q-130 -184 -237 -460q-117 -314 -117 -482q0 -138 86 -149l37 -2q92 0 213 57.5t245.5 150t259 217t253 251.5t227.5 260 q48 112 69.5 161.5t70.5 141.5t93 151q54 74 95 74h6q33 -6 33 -43q0 -34 -29 -90q-52 -105 -215 -313l-64 -78q-36 -87 -73 -181t-81 -210t-69 -181q14 2 37 2q34 0 47 -8q21 -8 21 -28v-7q-4 -12 -27 -12q-16 0 -18 10q-18 9 -37 9l-35 -4q-24 -60 -41 -103t-60 -146 t-79.5 -183t-91.5 -192.5t-103 -198t-107.5 -176.5t-112 -150.5t-109 -97.5t-105.5 -38q-19 0 -27 2q-108 23 -108 148q0 47 10 86q27 124 126.5 298t227.5 334.5t278.5 287t268.5 157.5q30 78 83.5 236.5t88.5 244.5q-111 -130 -228 -250t-246.5 -234.5t-248.5 -199 t-235 -135.5t-205 -51l-39 2q-127 16 -127 199zM268 -422q0 -117 88 -135q8 -2 25 -2q268 0 751 1223q9 23 13 32q-150 -48 -344 -238.5t-341.5 -418t-183.5 -387.5q-8 -36 -8 -74zM1180 2068q0 13 12 19q21 7 53 22t72.5 35t54.5 27q3 17 18 28t37 11h9q10 -1 18 -14t8 -27 t-10 -21q-30 -16 -72.5 -32.5t-100 -36.5t-75.5 -27l-6 -2q-7 0 -12.5 6t-5.5 12zM1468 1413q159 204 207 303q33 72 33 82t-6 10h-2q-54 0 -232 -395z" />
<glyph unicode="&#xde;" horiz-adv-x="972" d="M-496 -258q82 296 242 727q-18 6 -27 12q-16 11 -16 21q0 14 21 14q8 0 14 -6l20 -12q70 185 109.5 287.5t112 277.5t127.5 289.5t127.5 242t140.5 215.5l-2 9q0 16 15 33t39.5 36t31.5 27l8 4q13 0 29 -13t16 -22l-2 -4q-312 -327 -715 -1399q1 -1 4.5 -2t5.5 -2 q350 766 621 836q52 14 98 14q103 0 152 -67t49 -177q0 -114 -47.5 -243.5t-120.5 -216.5q-84 -101 -228 -151t-302 -50q-110 0 -203 22q-174 -382 -285 -712q-3 -8 -14 -8q-21 0 -21 14v4zM-274 293l67 158l-8 4zM-164 471q82 -16 172 -16q158 0 301 49t223 149 q72 90 115 208t43 220q0 97 -41.5 155t-126.5 58q-41 0 -90 -14q-261 -66 -596 -809z" />
<glyph unicode="&#xdf;" horiz-adv-x="980" d="M0 111q0 69 29 185t83 248.5t122 251.5t155.5 202t173.5 92h17q72 0 116.5 -56t44.5 -139q0 -65 -30 -133q-26 -55 -76.5 -125.5t-102.5 -116.5q80 -28 113 -121q212 115 322 115q14 0 14 -10q0 -12 -14 -12q-111 0 -316 -113q8 -40 8 -64q0 -75 -38 -146.5t-94 -120.5 t-119.5 -79t-116.5 -30q-65 0 -90 43q-8 11 -8 28q0 33 35 78.5t83.5 86.5t110.5 84.5t105.5 70.5t78.5 47q-32 100 -106 115q-77 -60 -125 -60q-23 0 -31 19l-2 10q0 28 39 51t88 23h16q53 43 107.5 116.5t77.5 126.5q28 67 28 129q0 67 -30.5 109.5t-85.5 42.5h-17 q-78 -8 -159 -87.5t-144 -194t-113.5 -242t-78 -240t-27.5 -180.5v-2q0 -15 -23 -15q-20 0 -20 13zM223 12q0 -8 4 -16q15 -27 58 -27q59 0 135.5 46t137 129t60.5 171q0 15 -4 43q-29 -17 -85 -55.5t-129 -92.5t-125 -109.5t-52 -88.5zM373 463q0 -2 4 -2q6 0 19.5 8.5 t31 21t18.5 13.5q-73 -15 -73 -39v-2z" />
<glyph unicode="&#xe0;" horiz-adv-x="665" d="M-131 362q0 62 61.5 148.5t108.5 97.5q6 2 20 2q54 0 76 -57q24 36 35 47q4 4 10 4q11 0 17 -6q8 -8 8 -16q0 -7 -6 -13q-33 -41 -89.5 -154.5t-56.5 -181.5q0 -60 53 -63h3q42 0 115 45.5t139 101t138 116t103 79.5q4 2 10 2q7 0 9 -4v-4q0 -6 -9 -12 q-39 -24 -113.5 -84.5t-137.5 -113.5t-134 -95.5t-116 -42.5h-9q-67 5 -67 88q0 79 76 250q-58 -77 -115 -131t-90 -54l-10 2q-29 12 -29 49zM-94 354q0 -18 14 -18l10 2q39 13 183 192q-15 40 -50 43q-44 0 -100.5 -86.5t-56.5 -132.5zM82 801q0 8 6.5 15t13.5 7h4 q12 -3 20.5 -12t8.5 -18v-5q67 -73 86 -88l4 -8q0 -4 -3.5 -8t-8.5 -4l-8 4q-9 8 -37 32t-49 42.5t-35 34.5q-2 2 -2 8z" />
<glyph unicode="&#xe1;" horiz-adv-x="671" d="M-131 362q0 60 61.5 147.5t108.5 98.5l20 2q56 0 78 -57l33 47q4 4 10 4q11 0 17 -6q8 -8 8 -16q0 -9 -4 -13q-34 -41 -91 -154t-57 -179q0 -63 56 -66h2q42 0 115 45.5t138.5 101t137.5 116t102 79.5q4 2 10 2q7 0 9 -4l2 -4q0 -6 -9 -12q-39 -24 -113.5 -84.5 t-137.5 -113.5t-134.5 -95.5t-117.5 -42.5h-9q-67 5 -67 86q0 20 5 45.5t10.5 46t16.5 49t16.5 43t17 40t12.5 28.5q-60 -78 -117 -131.5t-90 -53.5l-10 2q-29 12 -29 49zM-92 354q0 -18 14 -18l10 2q40 14 181 192q-13 40 -50 43q-43 0 -99 -86t-56 -133zM51 715q0 7 8 10 q4 1 111 53q2 9 11.5 16t21.5 7h6q7 0 11.5 -8t4.5 -17t-6 -12q-18 -10 -44 -20.5t-62 -23t-45 -15.5l-5 -3q-12 0 -12 13z" />
<glyph unicode="&#xe2;" horiz-adv-x="669" d="M-131 362q0 60 61.5 147.5t108.5 98.5l20 2q56 0 78 -57q24 36 35 47q4 4 10 4q11 0 17 -6t6 -16q0 -9 -4 -13q-34 -41 -91 -154t-57 -179q0 -63 56 -66h2q42 0 115 45.5t139 101t138 116t103 79.5q4 2 10 2q5 0 7 -4l2 -4q0 -6 -9 -12q-39 -24 -113.5 -84.5 t-137.5 -113.5t-134 -95.5t-116 -42.5h-9q-67 5 -67 88q0 79 76 250q-58 -78 -115.5 -131.5t-91.5 -53.5l-10 2q-29 12 -29 49zM-92 354q0 -18 14 -18l10 2q39 13 183 192q-9 23 -20 32t-29 11q-44 0 -101 -86.5t-57 -132.5zM70 707l2 6q18 18 67.5 52t67.5 42h2 q5 0 10.5 -5t5.5 -9l-20 -101q0 -8 -8 -8q-9 0 -9 10l13 84q-46 -25 -113 -82l-4 -2q-5 0 -9.5 4.5t-4.5 8.5z" />
<glyph unicode="&#xe3;" horiz-adv-x="667" d="M-127 362q0 60 61.5 147.5t108.5 98.5q6 2 20 2q56 0 78 -57l33 47q4 4 10 4q11 0 17 -6q8 -8 8 -16q0 -7 -6 -13q-34 -41 -90 -153t-56 -180q0 -63 56 -66h2q42 0 115 45.5t138.5 101t137.5 116t102 79.5q4 2 10 2q7 0 9 -4v-4q0 -6 -9 -12q-39 -24 -113 -84.5 t-137 -113.5t-134 -95.5t-117 -42.5h-8q-68 5 -68 86q0 15 2.5 33.5t6 34.5t10 36.5t11.5 34.5t13.5 35t12 30t11.5 27.5t9 20.5q-58 -77 -115 -131t-90 -54l-10 2q-29 12 -29 49zM-90 354q0 -18 14 -18l10 2q39 13 183 192q-9 23 -20 32t-29 11q-44 0 -101 -86.5 t-57 -132.5zM20 700q0 1 5 11q55 69 90 69q10 0 14 -4q12 -7 14.5 -23.5t5 -30t13.5 -15.5h6q9 0 19.5 6t16.5 11t16.5 16.5t12.5 13.5l5 2q5 0 8.5 -4.5t3.5 -10.5t-4 -8q-16 -19 -38.5 -36t-43.5 -17l-8 2q-23 7 -28 38.5t-9 33.5q-2 2 -10 2q-9 0 -20 -7.5t-30 -26 t-26 -24.5q-2 -2 -6 -2q-7 0 -7 4z" />
<glyph unicode="&#xe4;" horiz-adv-x="667" d="M-131 362q0 60 61.5 147.5t108.5 98.5q6 2 20 2q56 0 78 -57l33 47q4 4 10 4q11 0 17 -6q8 -8 8 -16q0 -9 -4 -13q-34 -41 -91 -154t-57 -179q0 -63 56 -66h2q42 0 115 45.5t138.5 101t137.5 116t102 79.5q4 2 10 2q7 0 9 -4l2 -4q0 -6 -9 -12q-39 -24 -113.5 -84.5 t-137.5 -113.5t-134.5 -95.5t-117.5 -42.5h-9q-67 5 -67 86q0 15 2.5 33.5t6 34.5t10 36.5t11.5 34.5t13.5 35t12 30t11.5 27.5t9 20.5q-58 -77 -115 -131t-90 -54l-10 2q-29 12 -29 49zM-92 354q0 -18 14 -18l10 2q40 14 181 192q-13 40 -50 43q-44 0 -99.5 -85.5 t-55.5 -133.5zM47 731q0 14 14.5 26.5t26.5 12.5q17 0 21 -25v-8q0 -23 -17 -26l-7.5 -2.5t-8.5 -2.5t-8 -1q-14 0 -19 16zM162 717q0 13 15 25t26 12q14 0 18 -23v-6q0 -23 -14 -29q-16 -4 -25 -4q-12 0 -18 17z" />
<glyph unicode="&#xe5;" horiz-adv-x="669" d="M-127 362q0 60 61.5 147.5t108.5 98.5q6 2 20 2q56 0 78 -57l33 47q4 4 10 4q11 0 17 -6q8 -8 8 -16q0 -9 -4 -13q-34 -41 -91 -154t-57 -179q0 -63 56 -66h2q42 0 115 45.5t138.5 101t137.5 116t102 79.5q4 2 10 2q7 0 9 -4l2 -4q0 -5 -11 -12q-43 -26 -149 -116.5 t-199.5 -155t-152.5 -64.5h-8q-68 5 -68 86q0 15 2.5 33.5t6 34.5t10 36.5t11.5 34.5t13.5 35t12 30t11.5 27.5t9 20.5q-58 -77 -115 -131t-90 -54l-10 2q-29 12 -29 49zM-88 354q0 -18 14 -18l11 2q39 13 180 192q-13 40 -49 43q-44 0 -100 -85.5t-56 -133.5zM115 707 q0 18 18 47q10 15 25 30h-2q-6 0 -6 7q0 8 8 8h18q5 4 23 8q6 0 6 -6q0 -8 -6 -8q14 -8 14 -27t-18 -41q-34 -39 -60 -39h-6q-14 3 -14 21zM133 713q0 -8 6 -8q10 0 32 23.5t22 37.5q0 11 -13 14q-19 -11 -33 -32.5t-14 -34.5z" />
<glyph unicode="&#xe6;" horiz-adv-x="790" d="M-123 362q0 60 61.5 147.5t108.5 98.5q6 2 21 2q27 0 50.5 -15t33.5 -42q10 6 26 22l17 15q50 50 108 53h10q25 0 40.5 -13t15.5 -36q0 -13 -2 -21q-13 -52 -95.5 -99t-150.5 -50q-31 -52 -31 -119q0 -49 24.5 -82.5t78.5 -36.5h10q31 0 69 11.5t72 27.5t77.5 44t73.5 49 t73 56t62.5 52t56 48.5t40.5 35.5q6 6 10 6q11 0 11 -10q0 -5 -7 -12q-2 -1 -43.5 -38t-58 -51.5t-62.5 -52t-73.5 -56.5t-72.5 -48.5t-78.5 -44t-73 -26t-72.5 -11.5h-19q-71 6 -104 46.5t-33 100.5q0 65 35 140q-49 -62 -95 -102t-75 -40l-10 2q-29 12 -29 49zM-86 354 q0 -18 14 -18l11 2q43 15 184 190q-16 42 -51 45q-44 0 -101 -86.5t-57 -132.5zM139 455q62 0 129.5 44t75.5 81v8q0 22 -27 22h-10q-35 -7 -89.5 -60.5t-78.5 -94.5z" />
<glyph unicode="&#xe7;" horiz-adv-x="509" d="M-274 27q0 10 10 10l8 -4q16 -13 37 -13q27 0 43 25q10 17 10 29q0 20 -29 30q-5 0 -10.5 5t-5.5 12q0 6 4 10q16 20 41 45q-43 32 -43 111q0 96 60 208t151 173q58 39 109 39q31 0 49 -16t18 -40l-2 -16q-10 -25 -18 -39q-11 -16 -25 -16q-6 0 -8 2q-8 4 -8 14q0 8 6 20 q8 16 8 29q0 23 -27 23q-35 0 -84 -37q-119 -92 -184 -248q-20 -42 -20 -104q0 -83 51 -99q18 -6 41 -6q32 0 71 14.5t71.5 32.5t78 54.5t70.5 57.5t71 66.5t57.5 57t49.5 51.5q5 8 12 8l4 -2l2 -6l-6 -12q-39 -42 -52 -55.5t-58.5 -59.5t-71 -67.5t-71.5 -58t-79 -54.5 t-73 -32.5t-74 -14.5q-17 0 -49 8q-8 4 -13 4q-9 -9 -17.5 -21t-10.5 -14q19 -7 30 -24t11 -37q0 -19 -8 -35q-19 -37 -68 -37q-29 0 -53 18q-6 3 -6 11z" />
<glyph unicode="&#xe8;" horiz-adv-x="602" d="M-147 311q0 99 63 189q41 59 89.5 99.5t96.5 43.5h11q25 0 40 -13t15 -36q0 -13 -2 -21q-13 -52 -94.5 -99t-149.5 -50q-31 -52 -31 -119q0 -50 24 -83t77 -36h10q56 0 128 32t151.5 91t122.5 95t104 90q13 11 18 16q6 6 11 6q10 0 10 -10q0 -6 -6 -12q-5 -4 -38 -33.5 t-49.5 -44t-54 -46t-63.5 -50t-64 -46t-69.5 -44t-66.5 -33t-68 -24t-62 -7.5h-18q-71 6 -103 45t-32 100zM-61 455q63 0 129.5 43.5t74.5 81.5l2 10q0 20 -28 20h-11q-35 -7 -89 -60.5t-78 -94.5zM80 795q0 9 7 17.5t15 8.5h2q29 -10 29 -30v-7q61 -66 86 -88q4 -4 4 -8 q0 -3 -4 -6.5t-8 -3.5t-6 2q-12 10 -38.5 32t-48.5 41t-36 35z" />
<glyph unicode="&#xe9;" horiz-adv-x="602" d="M-143 313q0 100 63 187q99 138 189 143h10q25 0 40 -13t15 -36q0 -13 -2 -21q-13 -52 -95.5 -99t-150.5 -50q-30 -51 -30 -119q0 -49 24 -82.5t78 -36.5h10q31 0 69 11.5t72 27.5t77.5 44t73.5 49t73 56t62.5 52t56 48.5t40.5 35.5q6 6 11 6q10 0 10 -10q0 -6 -6 -12 q-1 -1 -37.5 -33.5t-50.5 -44t-54 -45.5t-64 -51t-64 -45.5t-70 -44t-66 -32.5t-69 -24.5t-62 -7.5h-16q-71 6 -104 45.5t-33 101.5zM-55 455q62 0 129.5 44t75.5 81v8q0 22 -27 22h-10q-35 -7 -89.5 -60.5t-78.5 -94.5zM27 715q0 5 8 8q16 7 56.5 27t53.5 26q2 9 12 17 t23 8h4q7 -1 12 -9t5 -16q0 -11 -6 -14q-18 -10 -43.5 -20.5t-63.5 -23.5t-45 -16h-4q-4 0 -8 4t-4 9z" />
<glyph unicode="&#xea;" horiz-adv-x="602" d="M-147 311q0 102 63 189q99 138 188 143h11q25 0 40 -13t15 -36q0 -13 -2 -21q-13 -52 -94.5 -99t-151.5 -50q-28 -47 -28 -117q0 -50 24 -84t78 -37h10q45 0 105.5 25t109.5 55.5t114.5 81.5t96 77t78.5 69q13 11 18 16q6 6 11 6q10 0 10 -10q0 -6 -6 -12 q-5 -4 -38 -33.5t-49.5 -44t-54 -46t-63.5 -50t-64 -46t-69.5 -44t-66.5 -33t-68 -24t-62 -7.5h-18q-71 6 -104 45.5t-33 99.5zM-59 455q63 0 129.5 43.5t74.5 81.5l2 10q0 20 -28 20h-10q-35 -7 -89.5 -60.5t-78.5 -94.5zM86 739l2 4q18 18 67.5 52.5t67.5 42.5h2 q5 0 11 -5.5t6 -9.5l-21 -100q0 -8 -8 -8t-8 10l12 86q-48 -31 -111 -82q-2 -2 -6 -2q-5 0 -9.5 4t-4.5 8z" />
<glyph unicode="&#xeb;" horiz-adv-x="600" d="M-152 313q0 46 18 97t46 90q99 138 188 143h11q25 0 40 -13t15 -36q0 -13 -2 -21q-13 -52 -95.5 -99t-150.5 -50q-31 -52 -31 -119q0 -49 24.5 -82.5t78.5 -36.5h10q31 0 69 11.5t72 27.5t77.5 44t73.5 49t73 56t62.5 52t56 48.5t40.5 35.5q6 6 11 6q10 0 10 -10 q0 -6 -6 -12q-5 -4 -38 -33.5t-49.5 -44t-54 -46t-63.5 -50t-64 -46t-69.5 -44t-66.5 -33t-68 -24t-62 -7.5h-18q-71 6 -104.5 46t-33.5 101zM-63 455q63 0 129.5 43.5t74.5 81.5v8q0 22 -26 22h-11q-35 -7 -89 -60.5t-78 -94.5zM43 745q0 16 15 28.5t28 12.5q8 0 13 -7 t5 -17v-6q0 -26 -16 -29q-24 -6 -25 -6q-13 0 -18 16zM160 735q0 13 13 24t24 11h4q14 0 18 -22q0 -30 -16 -33q-24 -6 -25 -6q-11 0 -16 16z" />
<glyph unicode="&#xec;" horiz-adv-x="389" d="M-188 244q0 76 56.5 195.5t82.5 154.5q12 12 29 12q26 0 26 -22q0 -17 -12 -31q-2 -3 -13 -15.5t-17 -20.5l-18 -24t-20.5 -30.5t-19.5 -34t-21 -42.5t-18 -48q-27 -83 -27 -115q0 -20 10 -30q10 -5 17 -5q87 0 426 320q8 8 12 8q6 0 6 -4l2 -4q0 -6 -10 -14 q-171 -161 -257 -228q-126 -96 -181 -96q-19 0 -27 8q-26 17 -26 66zM-6 778q0 8 6.5 15.5t13.5 7.5h2q13 -3 21 -11.5t8 -17.5v-6q61 -66 86 -88q4 -2 4 -8q0 -4 -3.5 -8.5t-6.5 -4.5l-8 5q-10 9 -37.5 32t-48.5 41.5t-35 34.5q-2 2 -2 8z" />
<glyph unicode="&#xed;" horiz-adv-x="391" d="M-184 244q0 76 57 195t84 155q12 12 29 12q26 0 26 -22q0 -14 -14 -31q-1 -2 -11 -13.5t-14.5 -17t-15 -19.5t-17 -24.5t-17 -27.5t-18 -33t-16.5 -37t-16 -43q-29 -93 -29 -117q0 -17 11 -28q10 -5 16 -5q87 0 426 320q8 8 14 8l4 -4l2 -4q0 -6 -8 -14q-6 -5 -41 -38.5 t-61 -56.5t-68 -60.5t-76.5 -63.5t-72 -52t-68.5 -39.5t-53 -13.5q-19 0 -27 8q-26 17 -26 66zM-49 696q0 6 8 9q16 7 57 27t54 26q2 9 11.5 16.5t22.5 7.5h5q16 -3 16 -26q0 -10 -6 -13q-18 -10 -44.5 -20.5t-62 -22.5t-45.5 -16h-4q-5 0 -8.5 4t-3.5 8z" />
<glyph unicode="&#xee;" horiz-adv-x="391" d="M-184 244q0 76 56.5 195.5t82.5 154.5q12 12 29 12q26 0 26 -22q0 -17 -12 -31q-2 -2 -11.5 -13.5t-14 -17.5t-15 -19.5t-17.5 -24t-17 -27.5t-18 -33t-17 -37t-17 -43q-27 -83 -27 -115q0 -19 11 -30q10 -5 16 -5q87 0 426 320q8 8 12 8q6 0 6 -4l2 -4q0 -6 -10 -14 q-1 -1 -29.5 -28.5t-43 -40.5t-48.5 -44.5t-57 -50.5t-56.5 -47t-59.5 -45t-53.5 -34.5t-50.5 -25.5t-40 -8q-19 0 -27 8q-26 17 -26 66zM-39 698l2 4q19 19 68.5 54t66.5 41h2q5 0 11 -4.5t6 -8.5l-21 -102q0 -6 -6 -6q-10 0 -10 8l12 86q-8 -5 -112 -82l-5 -2q-5 0 -9.5 4 t-4.5 8z" />
<glyph unicode="&#xef;" horiz-adv-x="389" d="M-188 244q0 76 57 195t84 155q12 12 29 12q26 0 26 -22q0 -14 -14 -31q-2 -3 -17.5 -22.5t-26 -34t-26 -39t-29.5 -55t-26 -64.5q-29 -93 -29 -117q0 -18 10 -28q10 -5 17 -5q89 0 428 320q8 8 12 8l4 -4l2 -4q0 -6 -8 -14q-6 -5 -41 -38.5t-61 -56.5t-68 -60.5 t-76.5 -63.5t-72 -52t-68.5 -39.5t-53 -13.5q-19 0 -27 8q-26 17 -26 66zM-35 737q0 16 15 28.5t28 12.5q7 0 13 -7.5t8 -16.5v-6q0 -26 -19 -29l-7.5 -2.5t-8.5 -2.5t-8 -1q-14 0 -19 16zM82 725q0 13 14 25t27 12q14 0 18 -23q0 -29 -16 -34q-20 -5 -23 -5q-12 0 -18 17z " />
<glyph unicode="&#xf0;" horiz-adv-x="700" d="M-336 147v13q0 32 10 65q5 24 50 125q55 108 130 190.5t136 86.5q47 0 67 -26t25 -79l2 -20l-2 -23q12 17 39 60t45 69q24 56 49 105l-166 -13q-10 0 -10 13v4q0 15 14 18l180 15q61 123 126 244t145.5 260t150 226.5t107.5 90.5q10 0 16 -2q15 -11 15 -31v-6 q0 -55 -55.5 -158.5t-94.5 -159.5q-118 -195 -311 -460q91 -4 119 -9q7 0 11.5 -5.5t4.5 -12.5v-4q0 -13 -18 -16q-71 12 -144 12l-57 -80q-41 -100 -63.5 -158t-57.5 -158.5t-51.5 -186.5t-16.5 -159v-53q8 -90 45 -90h2q5 2 8.5 4t5 2.5t4 1t7.5 0.5q12 0 12 -14 q0 -8 -6 -14q-27 -9 -31 -9h-4q-39 0 -57 52q-13 38 -16 82l-2 49q0 110 30 249t76 261q-29 -38 -55 -69q-8 -10 -10 -13t-2 -6v-7q0 -21 -19 -84q0 -1 -4 -23t-16 -30l-5 -2.5t-6 -1.5q-10 0 -10 14v9q20 56 27 86q-223 -276 -305 -281h-9q-51 0 -55 57zM-295 137 q3 -18 19 -18h2q76 5 321 317q10 46 10 84v17q-1 27 -12 36t-33 13q-41 0 -116 -90.5t-133 -198.5t-58 -156v-4zM301 770q66 48 330 455q1 1 14 23.5t28 48t34 60.5t34 66t25 60.5t10 46.5v4q0 13 -8 16l-6 2q-29 -2 -100 -109.5t-148 -253t-133.5 -257.5t-79.5 -162z" />
<glyph unicode="&#xf1;" horiz-adv-x="677" d="M-291 219l2 6q17 53 85.5 182.5t113.5 200.5q9 15 18 15l6 -2q7 -7 7 -15l-2 -6q-15 -23 -33.5 -61.5t-43 -91.5t-36.5 -78q151 206 237 206l21 -4q26 -9 34.5 -65t6.5 -118t10.5 -113.5t46.5 -53.5h6q32 0 77.5 28t96.5 77t85 85t75 82q10 12 15 17q6 6 10 6l4 -6 q0 -4 -6 -10q-35 -42 -46.5 -55.5t-53.5 -60t-68 -69t-63.5 -53.5t-70 -45t-59.5 -14h-6q-37 3 -57 37t-25 82t-6 96.5t-3.5 85t-12.5 41.5l-11 2q-33 0 -93.5 -66t-132.5 -163.5t-85 -112.5q-3 -6 -18 -6l-10 2q-15 5 -15 18zM-20 657l4 11q47 86 79 86l11 -2q10 -4 16 -15 t7 -21.5t6 -19t14 -8.5h2q8 0 15.5 4t14.5 11.5t11 13.5t10 15.5t8 12.5q2 5 8 5q5 0 9 -4.5t4 -10.5l-2 -6q-13 -24 -34 -44.5t-42 -20.5h-4q-24 2 -35 32t-14 31l-7 2q-10 0 -20.5 -10.5t-25 -32t-23.5 -31.5l-6 -4q-6 0 -6 6z" />
<glyph unicode="&#xf2;" horiz-adv-x="405" d="M-102 350q0 61 41.5 143.5t76.5 102.5h4q6 0 12.5 -6.5t6.5 -11.5v-3q8 -2 21.5 -12.5t21.5 -15.5q58 -39 168 -39q57 0 117 8q10 0 10 -6v-2q0 -8 -10 -8q-78 -8 -115 -8q-103 0 -166 32l2 -16q0 -67 -49.5 -144t-93.5 -77h-6q-41 8 -41 63zM-72 346q0 -24 15 -33l6 -2 q21 0 52.5 54.5t39.5 85.5q12 40 12 57q0 30 -30 43q-29 -27 -62 -95t-33 -110zM29 721q0 8 6.5 16t13.5 8h4q27 -10 27 -30v-4q4 -4 38 -40.5t48 -47.5q4 -2 4 -9q0 -12 -12 -12l-6 2q-9 8 -37 32t-49 42.5t-35 34.5q-2 2 -2 8z" />
<glyph unicode="&#xf3;" horiz-adv-x="411" d="M-111 350q0 61 42 143.5t79 102.5h2q6 0 12.5 -6.5t6.5 -11.5v-3q6 -2 12.5 -6t15.5 -11t15 -11q59 -39 168 -39q56 0 116 8q10 0 13 -6q0 -10 -13 -10q-78 -8 -114 -8q-103 0 -166 32l2 -16q0 -67 -49.5 -144t-93.5 -77h-7q-41 8 -41 63zM-80 346q0 -25 14 -33l7 -2 q21 0 52.5 54.5t39.5 85.5q12 46 12 57q0 30 -31 43q-28 -27 -61 -95t-33 -110zM12 647q0 5 8 8q13 5 33.5 15t44.5 22t33 17q2 9 12 16.5t23 7.5h4q16 -3 16 -26q0 -10 -6 -13q-18 -10 -44 -20.5t-62 -23t-45 -15.5h-4q-5 0 -9 4t-4 8z" />
<glyph unicode="&#xf4;" horiz-adv-x="413" d="M-106 350q0 61 41.5 144t78.5 102h2q6 0 12.5 -6.5t6.5 -11.5v-3q6 -2 12.5 -6t15.5 -11t15 -11q58 -39 168 -39q56 0 116 8q10 0 13 -6q0 -10 -13 -10q-78 -8 -114 -8q-103 0 -166 32l2 -16q0 -67 -49.5 -144t-93.5 -77h-7q-40 8 -40 63zM-76 346q0 -24 15 -33l6 -2 q22 0 53 54t39 86q12 46 12 59q0 28 -29 41q-29 -27 -62.5 -95t-33.5 -110zM-8 633l2 4q14 19 60 58.5t63 49.5h2q5 0 11.5 -4t6.5 -8l-8 -102q0 -8 -8 -8t-8 8q0 57 2 86q-55 -41 -103 -94l-6 -2q-5 0 -9.5 4t-4.5 8z" />
<glyph unicode="&#xf5;" horiz-adv-x="415" d="M-98 350q0 61 42 143.5t79 102.5h2q6 0 12 -6.5t6 -11.5v-3q6 -2 12.5 -6t15.5 -11t15 -11q59 -39 168 -39q57 0 117 8q9 0 12 -6q0 -10 -12 -10q-78 -8 -115 -8q-103 0 -166 32l2 -16q0 -67 -49.5 -144t-93.5 -77h-6q-41 8 -41 63zM-68 346q0 -24 15 -33l6 -2 q21 0 52.5 54.5t39.5 85.5q12 46 12 57q0 30 -30 43q-29 -27 -62 -95t-33 -110zM-23 662l5 10q55 69 88 69q12 0 16 -4q13 -8 15.5 -37.5t17.5 -31.5h4q9 0 19.5 5.5t16.5 11t16.5 17t12.5 13.5l5 2q4 0 9 -5t5 -10l-4 -8q-48 -53 -82 -53l-8 2q-18 5 -24.5 21.5t-8 33 t-6.5 19.5l-8 2q-9 0 -20.5 -8.5t-29.5 -26t-28 -25.5q-2 -2 -6 -2q-5 0 -5 5z" />
<glyph unicode="&#xf6;" horiz-adv-x="411" d="M-106 348q0 61 42.5 144.5t79.5 103.5h2q5 0 12 -7t7 -11v-3q8 -2 21.5 -12.5t21.5 -15.5q59 -39 168 -39q57 0 117 8q10 0 10 -6v-2q0 -8 -10 -8q-78 -8 -115 -8q-103 0 -166 32v-14q0 -67 -49 -145t-94 -78h-7q-40 8 -40 61zM-74 348q0 -26 15 -35l6 -2q21 0 52.5 54.5 t39.5 85.5q12 46 12 57q0 30 -31 43q-29 -27 -61.5 -94t-32.5 -109zM-29 664q0 14 14 26t27 12h4q15 0 19 -24v-6q0 -23 -19 -29l-7.5 -2.5t-8.5 -2.5t-8 -1q-14 0 -19 18zM88 649q0 14 13.5 26.5t25.5 12.5q16 0 20 -24v-7q0 -20 -16 -26q-16 -4 -22 -4q-14 0 -19 14z" />
<glyph unicode="&#xf8;" horiz-adv-x="407" d="M-156 254l2 4q1 3 29 61q-4 8 -4 31q0 61 42 143.5t79 102.5h2q6 0 12 -6.5t6 -11.5v-3l17 -8q32 46 49 60l6 2q10 0 10 -8q0 -5 -4 -9q-12 -9 -47 -57l12 -8q58 -39 168 -39q57 0 117 8q10 0 10 -6v-2q0 -8 -10 -8q-78 -8 -115 -8q-103 0 -166 32l2 -16 q0 -67 -49.5 -144t-93.5 -77h-6q-16 3 -25 12q-21 -42 -22 -47q-3 -6 -10 -6q-11 0 -11 8zM-96 330q4 -12 12 -17l6 -2q21 0 52.5 54.5t39.5 85.5q13 50 13 57l-4 18q-61 -92 -119 -196zM-96 369q72 125 106 174l-14 8q-25 -23 -55 -80.5t-37 -101.5z" />
<glyph unicode="&#xf9;" horiz-adv-x="610" d="M-131 324q0 60 48 156t75 112l16 4q10 0 15 -8q6 -6 6 -15t-9 -18q-38 -36 -81 -119t-43 -123q0 -17 8 -20l18 -4q30 0 75 37t79.5 78t76.5 94.5t50 62.5q12 12 22 12t13 -6q4 -4 4 -10q0 -8 -6 -20q-123 -231 -123 -312q0 -31 18 -39q4 -2 14 -2q25 0 67.5 26t97.5 73.5 t94 84t92 88.5t57 56l8 4q8 0 8 -8q0 -4 -6 -10q-8 -7 -108 -106.5t-179.5 -160.5t-128.5 -61q-16 0 -22 4q-37 16 -37 74q0 49 25 115t53 116q-160 -213 -248 -213l-20 4q-29 9 -29 54zM104 768q0 9 6.5 17t14.5 8h4q13 -4 21 -13.5t8 -17.5v-4q4 -5 19 -21t24 -26 t21.5 -22.5t21.5 -18.5l4 -8q0 -5 -4 -9t-8 -4l-7 2q-103 86 -123 109q-2 2 -2 8z" />
<glyph unicode="&#xfa;" horiz-adv-x="612" d="M-131 324q0 61 48.5 157t76.5 111q12 4 14 4q10 0 15 -8q6 -6 6 -15t-9 -18q-38 -36 -80 -119t-42 -123q0 -17 8 -20l16 -4q30 0 75.5 37t80 78t77.5 95t50 62q12 12 20 12q10 0 13 -6q4 -4 4 -10q0 -8 -6 -20q-123 -231 -123 -312q0 -31 18 -39q4 -2 14 -2q25 0 68.5 26 t97.5 73t94 84.5t91 88.5t57 56l8 4q8 0 8 -8q0 -4 -6 -10q-15 -13 -80 -77.5t-117.5 -114t-116.5 -93t-102 -43.5q-16 0 -22 4q-37 16 -37 72q0 90 78 233q-160 -213 -248 -213l-20 4q-29 9 -29 54zM72 668q0 5 8 8q1 1 110 53q2 9 12 17t23 8h4q7 -1 12 -9t5 -16 q0 -11 -6 -14q-23 -11 -80.5 -32.5t-71.5 -27.5h-4q-4 0 -8 4t-4 9z" />
<glyph unicode="&#xfb;" horiz-adv-x="614" d="M-135 326q0 61 48.5 156t76.5 110q12 4 14 4q9 0 14 -8q7 -7 7 -15q0 -9 -9 -18q-38 -36 -80 -119t-42 -123q0 -17 8 -20l16 -4q30 0 75.5 37t80 78t77.5 95t50 62q12 12 20 12q9 0 12 -6q5 -5 5 -10q0 -6 -7 -20q-122 -229 -122 -312q0 -31 18 -39q4 -2 14 -2 q25 0 68.5 26t97.5 73t94 84.5t91 88.5t57 56l8 4q8 0 8 -8q0 -4 -6 -10q-15 -14 -79.5 -78t-117 -113.5t-117 -93t-102.5 -43.5q-16 0 -22 4q-35 17 -35 72q0 50 24 116t52 117q-160 -213 -246 -213l-20 4q-31 11 -31 56zM59 666l2 6q18 18 68 52t68 42h2q5 0 10.5 -5 t5.5 -9l-20 -101q0 -8 -9 -8q-8 0 -8 10l12 86q-65 -43 -110 -84l-6 -2q-5 0 -10 4.5t-5 8.5z" />
<glyph unicode="&#xfc;" horiz-adv-x="612" d="M-139 324q0 60 49 156t76 112q12 4 14 4q9 0 14 -8q9 -4 9 -15q0 -7 -11 -18q-38 -36 -80.5 -119t-42.5 -123q0 -17 9 -20l18 -4q30 0 75 37t79.5 78t76.5 94.5t50 62.5q12 12 22 12q7 0 10 -6q4 -4 4 -12q0 -10 -4 -18q-37 -65 -80 -161t-43 -149q0 -33 19 -41 q4 -2 14 -2q25 0 67.5 26t97.5 73.5t94 84t92 88.5t57 56l8 4q6 0 6 -8q0 -4 -6 -10q-15 -14 -79.5 -78t-117 -113.5t-117 -93t-102.5 -43.5q-16 0 -22 4q-35 17 -35 72q0 50 24 116t52 117q-156 -213 -246 -213l-21 4q-30 9 -30 54zM86 692q0 14 15 26.5t28 12.5 q7 0 12.5 -7.5t5.5 -16.5v-9q0 -23 -16 -26q-24 -6 -25 -6q-13 0 -18 16zM201 678q0 13 15 25t26 12q14 0 18 -23v-6q0 -23 -14 -29q-16 -4 -23 -4q-11 0 -20 17z" />
<glyph unicode="&#xfd;" horiz-adv-x="698" d="M-1024 -668q0 79 29 164q17 49 40.5 96.5t47.5 87t58 82t61.5 74.5t70.5 72t72.5 66t78.5 65t78 61.5t83 63t81 61.5q93 205 140 281q-9 -9 -47 -48.5t-57.5 -59t-57 -56t-62.5 -56.5t-55.5 -43t-54.5 -33.5t-43 -10.5q-15 0 -21 4q-26 14 -26 53q0 47 28 115 q27 71 71.5 152t62.5 104q5 8 20 8q23 0 23 -19q0 -6 -3 -12q-1 -3 -16 -17t-24 -28q-20 -32 -44.5 -76t-60 -122t-35.5 -113q0 -29 23 -29q36 0 107 55t136.5 122t130.5 134t83 80q2 2 8 2t11 -4t5 -10l-4 -8q-20 -27 -38.5 -56t-38 -66.5t-30.5 -60t-34 -71.5t-31 -66 q82 57 215.5 128t228.5 114l11 4l4 -6q0 -4 -11 -8q-340 -166 -460 -260q-27 -51 -71.5 -161.5t-87.5 -222.5t-100.5 -238t-112.5 -222t-122 -160t-131 -65h-4q-125 0 -125 159zM-1001 -668q0 -141 102 -141h6q52 2 110.5 63t108.5 149.5t105 209.5t94 222.5t81.5 210.5 t61.5 153q-206 -160 -256 -203q-235 -200 -337 -393q-29 -56 -50 -115q-26 -76 -26 -156zM-260 731q0 7 6 10q13 4 33.5 14t44.5 23t33 17q2 9 11 15.5t21 6.5h7q7 0 11.5 -8t4.5 -16q0 -10 -6 -13q-18 -10 -44.5 -20.5t-62 -22.5t-45.5 -16l-4 -2q-10 0 -10 12z" />
<glyph unicode="&#xfe;" horiz-adv-x="708" d="M-737 -498l2 6q84 309 203 615q151 389 432 960q3 7 14 15t18 8h2q11 -2 21 -11t10 -24q0 -8 -6 -20q-4 -6 -28 -29.5t-27 -30.5q-335 -694 -410 -899q35 78 72 149.5t92 157.5t109.5 148t121.5 104.5t131 42.5h13q52 -4 77 -43.5t25 -95.5q0 -50 -14 -88q148 45 223 49 q18 0 18 -6t-16 -6q-15 -1 -30.5 -3.5t-27.5 -5t-29.5 -7t-26 -6.5t-29 -8.5t-27.5 -8.5t-31.5 -10.5t-31.5 -10.5q-79 -197 -277 -270q-42 -14 -80 -14q-55 0 -63 33l-2 12q0 38 47.5 79.5t123 77.5t125 56t97.5 37q20 52 20 104q0 44 -16.5 73t-50.5 32h-10 q-50 0 -104.5 -33t-104 -85.5t-102 -130.5t-96 -156t-89 -174.5t-78.5 -173.5t-68 -165.5t-53 -138t-37 -103.5q-5 -18 -20 -18q-12 6 -12 16zM-287 205l2 -8q4 -15 37 -15q27 0 70 15q82 30 148.5 92.5t105.5 142.5q-30 -11 -82 -33.5t-119.5 -56t-114.5 -71.5t-47 -66z " />
<glyph unicode="&#xff;" horiz-adv-x="694" d="M-1024 -666q0 77 29 162q17 49 40.5 96.5t47.5 87t58 82t61.5 74.5t70.5 72t72.5 66t78.5 65t78 61.5t83 63t81 61.5q94 205 138 281q-7 -7 -36 -37.5t-42 -44t-43 -43.5t-48 -46.5t-45.5 -41t-47 -38.5t-42 -28.5t-40.5 -21t-33 -6.5t-21 4q-24 13 -24 53t26 115 q27 70 72 151t64 105q5 8 20 8q23 0 23 -19q0 -6 -3 -12q-1 -1 -17 -15.5t-26 -29.5q-16 -27 -43 -75.5t-60.5 -125t-33.5 -110.5q0 -29 21 -29q36 0 107 55t136.5 122t131 133.5t84.5 80.5q2 2 8 2t11 -4t5 -10l-4 -8q-10 -14 -20.5 -29.5t-18.5 -28t-19 -32t-17 -29.5 t-17.5 -33.5t-15.5 -31t-17 -35t-15 -32.5t-16.5 -35.5t-15.5 -33.5q82 57 215 128.5t227 113.5l11 4l4 -2v-2q0 -4 -9 -10q-339 -166 -462 -260q-26 -51 -70.5 -161.5t-87 -222.5t-100 -238t-112.5 -222t-122 -160t-131 -65h-4q-67 0 -96 45t-29 116zM-1001 -670 q0 -139 100 -139h6q52 2 111 63t109 149t105.5 209.5t94 222.5t80.5 211t61 153q-205 -160 -256 -203q-235 -200 -335 -393q-30 -56 -50 -115q-26 -76 -26 -158zM-313 733q0 14 15.5 27.5t27.5 13.5h2q14 0 18 -24v-7q0 -22 -16 -28q-24 -6 -25 -6q-12 0 -20 16zM-197 721 q0 14 14.5 26.5t26.5 12.5q15 0 19 -25v-6q0 -24 -17 -27q-2 0 -10 -3t-12 -3q-13 0 -19 17z" />
<glyph unicode="&#x178;" horiz-adv-x="1382" d="M0 547q0 182 111 461q99 260 254.5 526.5t302.5 425.5q6 6 22 6t30.5 -8.5t14.5 -24.5q0 -11 -8 -24q-60 -105 -151 -228.5t-177 -212.5q-129 -186 -235 -460q-41 -104 -79 -241.5t-38 -240.5q0 -138 86 -149l37 -2q113 0 268.5 85t319.5 226.5t317 298.5t293 326 q131 318 234 454q54 74 94 74h6q33 -6 33 -43q0 -34 -29 -90q-39 -77 -106 -169t-111 -144q-9 -13 -64 -78q-47 -114 -124.5 -318t-96.5 -254q12 2 35 2q36 0 49 -8q21 -11 21 -26l-2 -9q-4 -12 -27 -12q-13 0 -18 10q-18 9 -37 9l-35 -4q-22 -56 -36 -90.5t-51 -126 t-68 -159t-78 -170t-89 -180t-93.5 -168.5t-99.5 -156t-98.5 -121t-100 -85t-93.5 -29q-19 0 -27 2q-110 23 -110 152q0 34 10 82q28 124 127.5 298t227.5 334.5t278.5 287t269.5 157.5q30 78 83.5 236.5t88.5 244.5q-111 -130 -228 -250t-246.5 -234.5t-248.5 -199 t-235 -135.5t-205 -51l-39 2q-129 16 -129 201zM268 -420q0 -119 90 -137q8 -2 25 -2q50 0 107.5 43.5t115.5 121.5t115 170t113.5 207t102 212t90 206t68.5 168.5t47 118.5q2 5 3 8q-112 -36 -256 -160t-268.5 -278t-221.5 -320.5t-123 -285.5q-8 -36 -8 -72zM1171 2056 q0 23 24 43.5t44 20.5q11 0 19 -11.5t10 -27.5l2 -13q0 -15 -7.5 -27.5t-19.5 -15.5q-35 -10 -39 -10q-18 0 -30 29zM1354 2036q0 22 21 40.5t40 18.5q23 0 31 -37v-8q0 -37 -25 -45q-6 -1 -19 -4.5t-18 -3.5q-18 0 -28 26q-2 4 -2 13zM1468 1413q1 1 12.5 15.5t25 31.5 t32 41.5t37 50.5t37.5 54t36 56.5t29 53.5q33 72 33 82t-8 10h-2q-54 0 -232 -395z" />
<glyph unicode="&#x2000;" horiz-adv-x="1249" />
<glyph unicode="&#x2001;" horiz-adv-x="2499" />
<glyph unicode="&#x2002;" horiz-adv-x="1249" />
<glyph unicode="&#x2003;" horiz-adv-x="2499" />
<glyph unicode="&#x2004;" horiz-adv-x="833" />
<glyph unicode="&#x2005;" horiz-adv-x="624" />
<glyph unicode="&#x2006;" horiz-adv-x="416" />
<glyph unicode="&#x2007;" horiz-adv-x="416" />
<glyph unicode="&#x2008;" horiz-adv-x="312" />
<glyph unicode="&#x2009;" horiz-adv-x="499" />
<glyph unicode="&#x200a;" horiz-adv-x="138" />
<glyph unicode="&#x2010;" d="M82 596q0 14 10 14q3 1 15.5 4t25 5t21.5 2q13 0 20 -7q31 2 105 2q168 0 233 -16q12 -3 12 -14q0 -6 -4 -11.5t-10 -5.5h-4q-65 15 -199 15q-130 0 -205 -11h-2q-8 0 -13 7.5t-5 15.5z" />
<glyph unicode="&#x2011;" d="M82 596q0 14 10 14q3 1 15.5 4t25 5t21.5 2q13 0 20 -7q31 2 105 2q168 0 233 -16q12 -3 12 -14q0 -6 -4 -11.5t-10 -5.5h-4q-65 15 -199 15q-130 0 -205 -11h-2q-8 0 -13 7.5t-5 15.5z" />
<glyph unicode="&#x2012;" d="M82 596q0 14 10 14q3 1 15.5 4t25 5t21.5 2q13 0 20 -7q31 2 105 2q168 0 233 -16q12 -3 12 -14q0 -6 -4 -11.5t-10 -5.5h-4q-65 15 -199 15q-130 0 -205 -11h-2q-8 0 -13 7.5t-5 15.5z" />
<glyph unicode="&#x2013;" horiz-adv-x="600" d="M139 381q0 14 21 14l108 2q157 0 217 -14q13 -3 13 -14t-13 -11h-4q-40 11 -153 11l-172 -2q-7 0 -12 4.5t-5 9.5z" />
<glyph unicode="&#x2014;" horiz-adv-x="1222" d="M213 354q0 6 5.5 13t12.5 8q118 10 291 10q95 0 270 -3.5t226 -4.5q7 0 11.5 -5.5t4.5 -11.5q0 -5 -4.5 -9.5t-11.5 -4.5q-468 6 -490 6h-77q-65 -2 -213 -14h-2q-23 0 -23 16z" />
<glyph unicode="&#x2018;" horiz-adv-x="327" d="M279 1395v4q3 17 30 63q22 41 51 74q5 8 15 8q7 0 13.5 -6t6.5 -14q0 -9 -4 -13q-15 -17 -48 -62t-36 -56q0 -5 -4 -9t-8 -4h-4q-12 4 -12 15z" />
<glyph unicode="&#x2019;" horiz-adv-x="288" d="M160 1401q0 2 4 10q14 17 47.5 62.5t36.5 56.5q0 14 12 14l4 -2q12 -4 12 -14v-4q-3 -19 -30 -64q-22 -41 -51 -74q-6 -6 -15 -6q-8 0 -14 6t-6 15z" />
<glyph unicode="&#x201a;" horiz-adv-x="393" d="M139 74q0 2 4 10q14 17 47.5 62.5t36.5 56.5q0 6 4 10t9 4l4 -2q12 -3 12 -14v-4q-3 -16 -31 -64q-22 -41 -51 -74q-6 -6 -14 -6t-14.5 6t-6.5 15z" />
<glyph unicode="&#x201c;" horiz-adv-x="360" d="M238 1395v4q3 17 30 63q22 41 51 74q5 8 15 8q8 0 14 -6t6 -14q0 -9 -4 -13q-15 -17 -48 -62t-36 -56q0 -5 -4 -9t-8 -4h-4q-12 4 -12 15zM322 1393v6q55 98 75 110l9 2q9 0 12 -8l2 -8q0 -9 -6 -12q-10 -5 -36.5 -40.5t-35.5 -51.5q-3 -9 -14 -9h-4z" />
<glyph unicode="&#x201d;" horiz-adv-x="339" d="M184 1427q0 10 6 13q10 5 36.5 40.5t35.5 51.5q7 10 14 10l5 -2l4 -8l-2 -8q-55 -98 -76 -111l-8 -2q-9 0 -13 8zM250 1401q0 2 4 10q14 17 47.5 62.5t36.5 56.5q0 14 12 14l4 -2q13 -3 13 -14v-4q-3 -16 -31 -64q-22 -41 -51 -74q-6 -6 -15 -6q-8 0 -14 6t-6 15z" />
<glyph unicode="&#x201e;" horiz-adv-x="440" d="M205 100q0 10 6 13q10 5 36.5 40.5t35.5 51.5q7 10 14 10l4 -2l4 -8l-2 -8q-55 -98 -76 -111l-8 -2q-8 0 -12 8zM270 74q0 2 4 10q14 17 47.5 62.5t36.5 56.5q0 6 4 10t9 4l4 -2q12 -3 12 -14v-4q-3 -16 -31 -64q-22 -41 -51 -74q-6 -6 -14 -6t-14.5 6t-6.5 15z" />
<glyph unicode="&#x2022;" horiz-adv-x="458" d="M209 414q0 31 31 57.5t59 26.5h4q31 0 39 -52v-14q0 -53 -35 -61q-49 -11 -53 -11q-28 0 -41 35z" />
<glyph unicode="&#x2026;" horiz-adv-x="837" d="M193 74q0 17 17 31t32 14q18 0 22 -29v-6q0 -29 -20 -35l-27 -6q-13 0 -22 20zM356 74q0 17 17.5 31t32.5 14q18 0 22 -29v-6q0 -29 -20 -35l-27 -6q-14 0 -23 20zM518 74q0 17 16.5 31t30.5 14q18 0 25 -29q0 -36 -21 -41l-26 -6q-14 0 -23 20z" />
<glyph unicode="&#x202f;" horiz-adv-x="499" />
<glyph unicode="&#x2039;" horiz-adv-x="595" d="M59 391q0 16 11 19q63 15 200 59t187 57h4q14 0 14 -14q0 -12 -10 -14q-49 -13 -176 -54.5t-172 -54.5q68 -24 235 -98q8 -3 8 -12q0 -6 -4 -11.5t-10 -5.5l-6 2q-10 4 -47.5 21.5t-58.5 26.5t-54 22.5t-59 21.5t-47 11q-15 4 -15 24z" />
<glyph unicode="&#x203a;" horiz-adv-x="653" d="M119 262q0 6 4 13t10 8q51 17 164 64t162 65q-136 48 -256 80q-10 2 -10 14q0 14 12 14h4q18 -5 76 -18.5t89.5 -21.5t77 -22t78.5 -28q11 -4 11 -14q0 -11 -11 -15q-64 -22 -203 -77.5t-194 -73.5h-4q-10 0 -10 12z" />
<glyph unicode="&#x205f;" horiz-adv-x="624" />
<glyph unicode="&#x20ac;" horiz-adv-x="1437" d="M184 764q0 12 13 12q108 6 206 6l31 68q18 37 58 111q-35 -2 -100 -9.5t-97 -9.5q-3 -6 -12 -6q-5 0 -17.5 4t-17.5 4h-2q-8 0 -8 10q0 16 14 19q88 6 254 14q113 193 246 338q116 126 237 204t225 93q38 6 68 6q89 0 143 -39t54 -116q0 -33 -13 -80q-3 -17 -18 -17 q-10 0 -20.5 7.5t-10.5 15.5v2q13 44 13 72q0 108 -142 108q-41 0 -61 -4q-102 -15 -222.5 -89.5t-230.5 -193.5q-126 -138 -225 -305l217 4l233 -4q15 -4 15 -22q0 -17 -19 -17h-8q-114 19 -246 19q-2 0 -206 -6q-29 -48 -66 -127q-9 -15 -25 -52h453q6 0 11 -6t5 -14 q0 -14 -22 -14h-8q-98 14 -226 14l-141 -2q-53 0 -80 -2q-110 -268 -110 -467q0 -270 221 -303q12 -2 37 -2q124 0 306.5 83.5t276.5 168.5q8 4 11 4q6 0 10 -5.5t4 -11.5t-4 -10q-101 -91 -292 -180.5t-321 -89.5q-28 0 -40 2q-252 38 -252 336q0 205 110 475l-196 -8 q-13 0 -13 12z" />
<glyph unicode="&#x2122;" horiz-adv-x="712" d="M274 1581q0 11 11 14q50 14 133 17h35q59 0 90 -10q10 -3 10 -15q0 -14 -14 -14h-7q-33 10 -81 10h-21q-10 -23 -32 -67.5t-38 -81t-32 -76.5q-3 -8 -13 -8q-6 0 -11 4t-5 10v6q21 53 98 211q-68 -3 -104 -14h-4q-15 0 -15 14zM457 1356l2 6q1 3 12 28.5t13.5 30t12 26.5 t13 28.5t12.5 24.5t14.5 26.5t14 23t16.5 25.5t17 22q7 7 12 7t8.5 -4.5t3.5 -10.5v-4q-14 -63 -14 -143v-15q31 43 88 105.5t80 66.5h4q14 0 14 -12l-2 -8q-80 -173 -82 -213h2q13 0 13 -14q0 -16 -17 -19h-8q-18 0 -18 27q0 42 59 178q-35 -36 -75.5 -85.5t-53.5 -72.5 q-3 -8 -12 -8q-14 0 -17 10q-6 27 -6 64q0 42 6 80q-24 -41 -84 -176q-3 -9 -12 -9q-6 0 -11 4.5t-5 10.5z" />
<glyph unicode="&#x25fc;" horiz-adv-x="686" d="M0 0v686h686v-686h-686z" />
</font>
</defs>
</svg>
