<?xml version="1.0" standalone="no"?>
<!DOCTYPE svg PUBLIC "-//W3C//DTD SVG 1.1//EN" "http://www.w3.org/Graphics/SVG/1.1/DTD/svg11.dtd" >
<svg xmlns="http://www.w3.org/2000/svg" xmlns:xlink="http://www.w3.org/1999/xlink" version="1.1">
<metadata></metadata>
<defs>
<font id="modernlinebold" horiz-adv-x="2467" >
<font-face units-per-em="2048" ascent="1638" descent="-410" />
<missing-glyph horiz-adv-x="755" />
<glyph unicode="an" horiz-adv-x="1896" d="M-176 434q0 33 29 86q120 211 200 211q34 0 80 -55q13 21 35 43q15 18 18 18q82 0 82 -43q0 -13 -57 -96q-88 -149 -88 -201q0 -59 67 -59q56 0 136 53q127 87 338 275q135 126 178 129q23 0 47 -37q5 -7 8 -23q0 -47 -123 -284q-15 -21 -18 -50q19 17 98 91 q247 229 299 229q68 0 74 -66q0 -12 -4 -82v-155q6 -105 102 -105q87 0 205 74q129 97 225 174q44 38 62 49q6 0 6 -12q0 -9 -97 -106q-131 -131 -247 -195q-92 -53 -168 -53q-170 0 -176 196q-2 25 -2 105q0 35 6 100q-82 -61 -226 -215q-162 -170 -223 -213 q-44 -29 -74 -29q-22 0 -38 13q-19 13 -19 26q0 22 37 68q16 21 27 47q24 63 108 215q79 143 86 164q0 2 -2 2q-8 0 -33 -25q-238 -224 -239 -225q-226 -209 -381 -209q-119 0 -119 109q0 79 43 166l-53 -52q-94 -94 -164 -100q-45 0 -45 47zM-49 500q0 -4 4 -4l68 61l67 66 q-14 20 -24 20q-37 0 -95 -94q-20 -33 -20 -49z" />
<glyph unicode="and" horiz-adv-x="2656" d="M-303 332q0 38 84 188q76 131 82 137q57 60 104 60q42 0 66 -43q10 0 47 61q41 62 51 62q11 0 23 -9q13 -10 18 -20q6 -9 6 -18q0 -18 -65 -136q-107 -198 -107 -245q0 -12 6 -27q3 -18 47 -18q105 3 256 127q119 97 260 243q93 98 160 152q27 17 60 22q6 0 18 -4l12 -8 l4 -4q7 -10 7 -18q0 -22 -66 -166q-93 -202 -166 -342q-16 -37 -16 -56q50 43 205 230q83 100 137 159q86 103 129 103q2 0 22 -4q15 -3 31 -25q12 -17 16 -51q0 -36 -6 -94q-8 -132 -8 -148q0 -110 45 -135q27 -16 76 -16l37 2v-2q122 17 317 114q0 7 2 9q1 1 2 4t2 4 q0 2 2 4q58 152 175 281q123 135 210 135q17 0 35 -2q26 -3 82 -56q60 83 78 103l55 69q30 37 150 244q227 395 375 565h2q6 9 16 19q8 8 33 8q11 0 26 -6q25 -9 25 -33q0 -21 -55 -94q-207 -267 -449 -668q-323 -534 -479 -928l-27 -88q-43 -133 -43 -196l2 -23 q0 -18 -22 -18q-11 0 -23 18q-10 17 -10 70q0 45 14 102q74 293 293 686q0 2 2 2l15 29q12 24 12 33v4q-10 0 -111 -131q-216 -303 -315 -303q-3 0 -31 4q-21 6 -37 35t-16 61l2 23q-257 -133 -371 -133q-117 0 -157 98q-29 62 -29 180q0 65 2 94q2 8 2 27q-20 -14 -27 -25 l-14 -14q-73 -67 -213 -244q-120 -155 -211 -243q-29 -19 -55 -19q-36 0 -55 29q-11 18 -11 35q0 12 7 36q42 115 227 445q54 96 69 129q1 1 2.5 3t3 5.5t3.5 5.5q2 3 6.5 12.5t7.5 14.5q6 10 10 22h-2l-39 -34l-131 -129q-257 -272 -411 -355q-81 -47 -140 -47 q-116 0 -116 113q0 83 38 149q-29 -25 -45 -51q-5 -7 -23 -32t-28 -40t-27.5 -38.5t-23.5 -32.5q-24 -35 -41 -45q-22 -11 -35 -11q-2 0 -4.5 1t-6.5 2t-7 2q-13 3 -27 20q-12 15 -12 33zM-209 391q0 -2 2 -2l4 2q25 14 86 103q70 95 101 122v5q-10 16 -17 16q-22 0 -59 -43 q-36 -45 -88 -135q-29 -60 -29 -68zM1663 350q0 -28 18 -28q7 0 19 4q109 80 254 260q-127 -95 -279 -176q-2 -2 -2 -9q-2 -2 -2 -6q-3 -3 -6 -12q-2 -4 -2 -33zM1696 455q30 18 57 34q38 23 92 58q8 6 43.5 30t53.5 37q35 26 73 64q27 27 27 41v2q-15 24 -49 24 q-54 0 -113 -53q-102 -92 -184 -237z" />
<glyph unicode="dd" horiz-adv-x="1589" d="M-242 350q0 21 17 70q45 113 112 209q135 202 248 202q62 0 117 -49l88 119q164 204 301 438q83 146 195 287q34 37 65 37q37 0 37 -33q0 -30 -39 -78q-296 -383 -543 -854q-11 -21 -39 -67q-249 -431 -249 -578q0 -72 57 -78q60 0 131 41q114 65 362 287q-4 12 -4 25 q0 23 17 69q61 149 178 254q66 54 121 54q38 0 74 -31q76 113 174 299q44 85 106 190q38 65 92 166q47 92 109 189q7 7 8 10q18 55 53 55q32 0 53 -24q7 -7 7 -15q0 -13 -47 -78q-82 -111 -166 -266l-35 -61q-520 -934 -637 -1338q-10 -45 -10 -63l4 -43q0 -21 -29 -21 q-30 0 -33 62q0 156 228 626q19 38 48.5 103t39.5 86l-4 -6q-27 -45 -58 -90q-76 -120 -166 -176q-34 -17 -65 -17q-27 0 -41 14q-378 -354 -533 -354q-94 15 -94 131q0 53 23 140q40 137 90 241q64 137 100 195q0 10 2 14q0 6 -2 6h-2l-61 -71q-233 -297 -334 -297 q-17 0 -37 10q-29 16 -29 59zM-133 381q102 73 237 233q25 33 70 82q-10 27 -35 27q-14 0 -45 -21q-129 -105 -219 -290q-1 -1 -8 -31zM680 354q187 172 274 277q-7 10 -26 10q-15 0 -33 -12q-115 -77 -209 -252q-6 -6 -6 -23zM688 317l8 -2q15 0 41 23q35 23 82 80 q89 103 129 172q-97 -116 -260 -273z" />
<glyph unicode="ee" horiz-adv-x="1419" d="M-270 315q0 77 30 138q83 157 220 270q73 61 143 61q36 0 61 -22q23 -26 23 -66q0 -50 -43 -102q-83 -98 -195 -156q-37 -24 -73 -24q-21 0 -27 2t-14 2t-23 -21q-14 -20 -14 -55q0 -29 14 -49q34 -37 80 -37q71 0 199 51q137 53 208 94q78 47 115 117q59 135 182 209 q65 41 107 41q51 0 51 -53q0 -52 -72 -127q-92 -86 -196 -148q-17 -27 -17 -53q0 -47 56 -65q47 -13 112 -13q101 0 228 56q266 138 409 243q1 1 11 6q12 -3 12 -12q0 -16 -51 -61q-400 -308 -648 -308q-201 0 -225 134q-35 -20 -45 -25q-37 -17 -43 -20 q-273 -144 -422 -144q-91 0 -133 60q-20 29 -20 77zM-94 526q6 -6 18 -6h8q105 35 187 146l2 10q0 20 -21 20t-43 -14q-81 -57 -151 -156zM541 553l6 -2q12 0 82 55q55 46 55 66q0 8 -2 10l-4 4q-12 0 -47 -24q-33 -23 -56 -56q-20 -29 -34 -53z" />
<glyph unicode="ern" horiz-adv-x="2752" d="M-217 373q0 79 47 159q94 164 276 240l13 2q20 0 39 -16q26 -20 26 -60q0 -21 -16 -47q-53 -74 -121 -133q-71 -59 -125 -59q-19 0 -37 6q-32 -51 -32 -103q0 -2 0.5 -6t1.5 -12.5t2 -15.5q3 -34 47 -62q40 -24 123 -24q232 21 637 458l24 27q-10 20 -10 43q0 33 31 72 q22 22 57 22q16 -3 25 -24q4 -12 4 -21q0 -12 -7 -33l19 -12q23 -15 49 -37q39 -36 39 -88q0 -18 -6 -45q-5 -24 -90 -153q-204 -307 -207 -422q0 -53 43 -68q6 -2 18 -2q142 3 561 455l216 235q56 63 131 142q111 114 163 114q44 0 50 -65q0 -28 -21 -66q-46 -74 -98 -174 q-74 -136 -74 -162q0 -6 4 -6q12 0 133 109l97 86q109 100 157 106q45 0 60 -18q16 -16 16 -90l-2 -93q0 -108 12 -157q18 -78 105 -78q104 0 264 121q79 59 186 153q35 35 43 39h6q2 0 4 -2v-8q-7 -17 -96 -106q-119 -124 -250 -201q-94 -55 -172 -55q-45 0 -84 20 q-94 52 -94 246q0 35 2 51q0 67 2 90l-32 -24q-12 -9 -193 -181l-182 -168l-25 -26q-33 -39 -55 -39q-14 0 -35 12q-33 23 -33 72q0 28 15 69q41 106 194 355q72 119 72 129q-6 0 -8 2q-43 0 -289 -279q-26 -26 -57 -65l-127 -146q-422 -479 -592 -479q-55 0 -82 35 q-37 40 -37 106q0 75 47 193q38 91 135 272l49 92q29 60 29 78q0 31 -49 52q-144 -167 -326 -320q-232 -197 -366 -203q-96 0 -152 29q-92 50 -92 162zM-68 543h5q20 0 49 16t57 41q25 23 39 43q14 17 14 25q0 6 -10 6q-17 0 -59 -33q-43 -34 -95 -98z" />
<glyph unicode="ff" horiz-adv-x="1460" d="M-1430 -963q13 177 121 435q58 147 183 407q18 38 18 55q0 23 -2 29t-2 17q0 26 16 53q23 45 74 96q36 33 76 100q98 190 364 582q395 573 527 573q45 0 73 -22q27 -24 33 -57q0 -39 -18 -54q-22 -16 -33 -16h-8q-7 3 -12 14v2q-7 23 -19 23q-4 0 -12 -4 q-69 -42 -191 -183q-68 -82 -200 -272q-266 -380 -318 -479q-10 -23 -10 -33l4 -4q167 103 283 170q521 313 710 463q43 37 66 37q8 0 20 -6q12 -9 21 -21q8 -11 8 -22q0 -26 -57 -103q-113 -148 -267 -368l-34 -64q-7 -11 -7 -14q0 -4 5 -9h6q234 126 540 195 q192 55 258 55q5 -5 5 -8q0 -7 -5 -12q-7 -3 -94 -27q-495 -111 -782 -334l-43 -30q-42 -33 -86 -111q-4 -8 -12 -20t-11 -21q0 -8 4 -20q29 -29 50 -82q32 -74 32 -187q0 -168 -88 -354q-46 -97 -116 -184q-86 -111 -156 -111q-45 0 -66 41q-22 40 -22 127q0 57 6 84 q37 180 106 354q70 181 142 303q20 33 20 54q0 18 -4 30q-3 5 -8 19q0 8 4 20q13 19 76 62q60 42 84 80q218 357 330 506l18 24q-25 0 -35 -10q-2 0 -2 -2q-556 -354 -956 -637q-63 -48 -92 -115q-11 -24 -52 -96q-30 -52 -30 -70q0 -12 6 -24q33 -79 33 -162 q0 -66 -23 -178q-38 -166 -102 -291q-68 -130 -179 -250q-43 -49 -96 -49q-27 0 -49 22q-23 23 -23 84zM-1323 -905q0 -15 6 -33q28 12 76 70q99 123 154 303q34 106 34 219q0 67 -10 113q-13 -5 -20 -19l-2 -4q-181 -375 -234 -621v-6q-4 -12 -4 -22zM-537 -764q0 -2 5 -37 q3 -22 30 -22q75 0 213 252q84 188 84 342q0 5 -4 79q-6 53 -47 113l-4 4q-1 1 -3 4t-3 4l-10 5l-2 -2q-3 -2 -5 -4t-4 -5q-165 -308 -231 -608l-2 -12q-17 -90 -17 -113z" />
<glyph unicode="in" horiz-adv-x="1806" d="M-279 301q3 124 107 283q95 148 149 151q46 0 46 -41q0 -18 -19 -43q-11 -14 -41 -57q-153 -218 -153 -272q0 -40 47 -43q53 0 159 65q166 112 400 297q130 101 180 133q62 41 102 41q38 0 54 -22q14 -22 14 -43q0 -40 -135 -289q-116 -215 -125 -275q45 40 229 265 q189 230 232 258q22 14 43 14q64 -3 67 -72v-22q-4 -126 -4 -164q0 -51 10 -103q9 -44 37 -57q25 -14 64 -14q147 0 432 270q49 49 59 49q4 0 4 -6q0 -10 -6 -16q-84 -99 -207 -201q-174 -143 -299 -143q-113 0 -147 88q-21 52 -21 151q0 33 2 47v37q0 17 3 29q0 17 2 27v28 l-45 -45q-12 -12 -189 -239q-147 -185 -201 -248q-28 -31 -65 -31q-39 0 -68 29q-28 28 -28 69q0 68 198 428q43 101 43 117q-59 -9 -270 -196q-236 -197 -363 -277q-116 -76 -188 -76q-40 0 -70 23q-39 26 -39 96zM53 850q0 32 31 63q16 25 37 25q9 0 37 -14q20 -14 20 -33 q0 -52 -98 -70q-27 0 -27 29z" />
<glyph unicode="ll" horiz-adv-x="1353" d="M-238 88q0 261 207 784q105 268 318 615q322 530 487 530q27 0 47 -14q43 -34 43 -94q0 -236 -418 -807q-232 -312 -421 -449l-31 -24q-37 -34 -98 -244q-31 -113 -43 -285v-32q0 -110 69 -113q53 0 135 49q154 89 367 293q175 166 289 311q52 154 209 488 q183 400 362 614q121 148 221 148q79 0 82 -66q0 -201 -561 -918q-107 -137 -172 -212q-77 -77 -203 -523q-90 -322 -90 -456q0 -33 27 -60q6 -9 6 -10q0 -13 -10 -23q-6 -6 -23 -10q-16 -4 -18 -4q-10 0 -13 6q-28 39 -28 133q0 111 39 283q59 273 135 498 q-253 -306 -481 -482q-180 -143 -306 -143q-127 12 -127 217zM39 756q0 -4 2 -4l8 2q312 242 647 858q105 190 105 280q0 39 -27 39q-36 0 -119 -108q-20 -25 -22 -27q-262 -323 -559 -948q-35 -87 -35 -92zM889 815l4 -2h2q36 33 143 168q276 346 426 618q72 135 72 179 q0 26 -27 26q-49 0 -131 -94q-190 -217 -467 -840q-18 -35 -22 -55z" />
<glyph unicode="mm" horiz-adv-x="2396" d="M-401 154q0 17 39 102q134 335 202 457q35 41 72 41q39 0 39 -35q-3 -13 -31 -68q-58 -98 -61 -110q-39 -59 -39 -99q80 80 160 181q173 210 272 286q86 68 149 68q58 0 58 -55q0 -42 -121 -314q-70 -155 -70 -192q0 -9 4 -13q36 0 125 105q162 180 230 180q48 0 63 -61 q0 -57 -51 -174q-36 -87 -49 -142q0 -28 10 -28q34 0 338 292q208 208 240 211q45 0 45 -26q-12 -62 -60 -148q-35 -67 -47 -98l27 21q140 137 194 137q16 0 33 -10q23 -16 23 -39q-3 -48 -58 -168q-9 -30 -12 -33q-14 -32 -14 -57q0 -7 4 -27q23 6 135 113q120 120 164 120 q12 0 35 -10q20 -11 20 -72l-2 -20q0 -127 59 -127q38 0 72 12q190 59 408 256q2 2 10 2q4 -4 4 -10q0 -17 -23 -37q-143 -128 -274 -203q-135 -81 -207 -81q-106 0 -106 161v43q0 15 -4 21q-33 -10 -136 -113q-28 -28 -82 -78q-55 -55 -90 -55q-36 0 -51 43q-8 21 -8 47 q0 23 66 203q0 8 -3 14q-17 -7 -30 -20q-87 -69 -158 -156q-124 -158 -137 -188q-23 -29 -45 -29q-35 0 -35 37t164 336q58 103 61 117q1 4 6.5 15l8.5 17q-3 0 -11 -4l-10 -10l-6 -4q-25 -23 -195 -193q-149 -146 -219 -209q-69 -63 -121 -63q-59 0 -59 74q0 47 29 119 l69 159q0 4 9 25q8 19 8 39q-2 2 -6 2q-43 0 -287 -277q-16 -16 -39 -32q-31 -22 -66 -25q-51 0 -51 55q0 75 92 301l11 21q8 18 31.5 74.5t37.5 87.5q13 23 13 34q0 9 -11 9q-8 0 -69 -52q-165 -152 -400 -477q-128 -178 -178 -231q-16 -16 -37 -19q-25 0 -37 6 q-34 18 -34 48z" />
<glyph unicode="nn" horiz-adv-x="2295" d="M-397 250q0 23 6 47q17 49 119 211q59 85 75 117q22 43 41 67q20 29 54 29q17 0 32 -12t15 -33q0 -34 -97 -166q-66 -90 -88 -135q-14 -14 -14 -37q17 7 90 74q389 348 467 348q66 0 66 -72q0 -34 -25 -117q-33 -88 -33 -141q0 -113 88 -113q76 0 217 99q104 73 332 282 q53 51 119 109q37 37 63 37q35 0 35 -33q0 -24 -20 -63q0 -3 -2 -3q-36 -71 -72 -127q-61 -101 -76 -131q-1 -1 -2 -2.5l-3 -4.5t-3 -5q-6 -9 -6 -24v-7q3 2 8 6t13.5 11t15.5 12q125 106 239 176q109 68 166 68q66 0 66 -84l-2 -58q-4 -58 -4 -104q0 -168 108 -168 q199 0 510 299q8 8 21 8q8 -3 8 -10q0 -8 -12 -20q-148 -141 -256 -215q-157 -109 -285 -109q-156 0 -156 248q0 40 4 102q0 27 -14 27q-30 0 -92 -39q-16 -10 -16 -12q-175 -113 -334 -287q-78 -96 -121 -96q-9 0 -21 4q-32 17 -32 61q0 36 18 86q41 104 178 309 q39 57 43 68q-4 -2 -33 -31q-260 -245 -419 -356q-116 -78 -195 -78q-141 0 -147 154q0 59 32 162q21 68 21 92v6q-43 0 -363 -293q-121 -118 -188 -168q-44 -33 -78 -33q-18 0 -37 13q-24 21 -24 55z" />
<glyph unicode="on" horiz-adv-x="1521" d="M-430 248q0 58 70 174q102 174 198 276q61 64 99 64q19 0 26 -10q10 -13 10 -21q0 -9 -6 -18t-10 -13q-6 -6 -8 -10q8 -14 76 -14q114 0 221 43q204 82 221 82q14 0 29 -15q14 -14 14 -30q0 -28 -55 -129q-10 -17 -21 -47q125 111 184 114q64 0 64 -86q0 -62 6 -114 q9 -130 113 -136q122 12 280 103q152 84 222 151h4q14 0 14 -18l-2 -4q-133 -133 -340 -230q-113 -55 -184 -55q-73 0 -123 41q-48 45 -54 123q-4 122 -4 137q0 29 -10 29q-14 0 -57 -37q-134 -110 -189 -195q-42 -66 -92 -165q-24 -43 -53 -43q-45 0 -45 47q0 19 12 49 q60 146 135 278l64 119v14l-17 -6q-198 -82 -315 -82q-49 0 -98 9l-6 -15q8 -24 8 -55q0 -72 -55 -154q-72 -115 -187 -198q-36 -25 -65 -25q-13 0 -27 2q-25 4 -39 35q-8 20 -8 35zM-317 285q59 39 114 100q80 89 80 168q0 25 -4 35q-22 -20 -70 -84q-39 -55 -77 -123 q-35 -66 -43 -96z" />
<glyph unicode="oo" horiz-adv-x="911" d="M-287 244q9 122 70 248q114 237 227 237q21 0 35 -14q29 -37 29 -72q0 -25 4 -37q6 -16 65 -16q64 0 152 49q24 8 41 25q15 12 31 12q6 0 14 -4q0 -1 3.5 -6t4.5 -9q2 -6 2 -12q0 -13 -33 -33q-113 -180 -116 -295q0 -30 18 -30q14 0 29 18q60 72 88 213q6 27 6 45 q0 7 -4 15q-4 4 -4 16q9 39 26 39q18 0 25 -23q9 -33 135 -39q99 3 178 29q30 12 41 12q13 0 13 -10q0 -13 -17 -20q-128 -58 -239 -58q-20 0 -60 4q-4 1 -12.5 2t-11.5 2q-20 0 -23 -32q-36 -151 -115 -256q-30 -35 -67 -35q-34 0 -55 24q-25 22 -25 70q0 139 100 283 q-56 -41 -139 -47l-49 4q-11 0 -17 -21q-77 -258 -225 -362q-31 -17 -53 -17q-41 0 -61 45q-11 26 -11 56zM-197 254q0 -14 15 -14q56 0 135 163q51 99 51 140q0 22 -8 30q-19 13 -19 35q0 10 3 13q-8 0 -15 -7q-4 -6 -8 -10q-27 -27 -76 -117q-78 -147 -78 -233z" />
<glyph unicode="ov" horiz-adv-x="1568" d="M-266 279q0 52 16 96q70 192 205 348q36 45 88 45q16 0 37 12q218 90 369 127q44 13 63 13q59 0 59 -54q0 -30 -26 -78q-9 -17 -99 -163q-150 -243 -249 -566q-17 -49 -17 -77q33 3 60 30q22 16 137 140q408 416 928 712q67 35 98 47q14 7 27.5 13.5t21 9.5t8.5 4 q8 4 10 4q21 0 21 -18q0 -20 -27 -29q-256 -122 -596 -403q-290 -231 -465 -418q-160 -183 -245 -183q-70 0 -70 82q0 22 18 93q33 121 78 223q59 143 191 360q106 177 106 195l-2 10q-32 0 -53 -6q-157 -44 -320 -119q-43 -18 -43 -49q0 -15 5 -27q6 -24 6 -49 q0 -34 -15 -72q-53 -151 -151 -276q-53 -68 -107 -68q-67 0 -67 91zM-168 309l18 10q101 116 146 256q6 15 6 31q-4 20 -14 35q-132 -205 -156 -332z" />
<glyph unicode="rr" horiz-adv-x="1382" d="M-385 -29q0 130 217 443q59 95 59 108q0 30 -30 33q-35 3 -62 18q-51 20 -51 64q0 88 86 94q25 0 25 -41q0 -27 14 -33q47 -15 129 -45q27 -12 27 -57l-2 -25q-3 -38 -148 -215q-170 -226 -176 -313q3 -44 31 -47q117 15 389 266q233 257 301 373q16 22 16 39l-4 10 q3 16 39 16q42 -6 47 -22q8 -19 21 -27q3 -3 53 -24q47 -21 47 -64q0 -40 -65 -155q-105 -211 -111 -320q6 -35 49 -35q90 35 320 271q298 307 368 329q10 0 13 -8l-5 -10q-151 -136 -342 -348q-142 -161 -227 -232q-92 -77 -158 -77q-101 3 -104 110q0 128 102 346 q39 82 39 113q0 9 -14 29q-15 18 -25 18q-7 0 -10 -8q-356 -428 -586 -588q-118 -80 -182 -80q-90 0 -90 94z" />
<glyph unicode="ss" horiz-adv-x="1548" d="M-643 -158q0 80 51 172q134 242 537 478l2 4q0 6 -19 6q-50 -4 -94 -4q-106 0 -151 57q-15 18 -15 45q0 93 176 252q131 119 248 176q62 33 103 33q30 0 53 -23q22 -25 22 -69q0 -64 -39 -70q-22 0 -28 19q-3 18 -15 18q-36 0 -131 -59q-282 -175 -282 -261q0 -19 16 -32 q23 -13 107 -13h28q95 0 129 -22l70 35q200 113 393 178q113 39 158 39q34 0 51 -17q18 -15 18 -36q0 -17 -4 -27q-12 -35 -12 -78v-47q3 -34 12 -84q9 -49 15 -61q55 35 147 71q95 39 172 60q85 24 139 30q33 0 33 -12q0 -10 -26 -16q-74 -14 -158 -37q-173 -48 -295 -133 q16 -62 16 -117q0 -141 -79 -272q-54 -91 -125 -156q-132 -123 -240 -123q-2 0 -6.5 0.5l-13.5 1.5t-17 2q-31 7 -51 33q-23 30 -23 72q9 168 172 331q108 111 285 226q-49 131 -49 280v27q0 24 -27 24q-68 -3 -366 -139q-148 -68 -148 -88q0 -5 6 -8q37 -46 37 -117 q0 -80 -35 -176q-65 -185 -219 -352q-161 -172 -315 -187h-21q-41 0 -94 17q-44 17 -71 57q-27 41 -27 92zM-596 -154q0 -127 133 -127q152 0 311 181q132 150 197 327q31 88 31 156q0 59 -31 90q-5 8 -16 8q-7 0 -13 -4q-161 -97 -288 -192q-324 -244 -324 -439zM272 -143 q0 -43 31 -58q21 -6 43 -6q27 0 78 21q143 65 231 231q62 118 62 221q0 58 -17 105q-394 -262 -428 -514z" />
<glyph unicode="th" horiz-adv-x="1599" d="M-709 -248q0 164 263 690q278 553 514 936q16 37 16 43q0 9 -12 9q-349 -23 -551 -60q-52 -12 -103 -12q-84 0 -84 59q0 21 19 53q20 30 47 48q18 12 33 12q37 0 37 -41q0 -15 -9 -39h9q6 0 18.5 0.5t35.5 1.5t44 2q16 1 83 7t113 9q51 4 218 19q28 3 56 5t43.5 3t22.5 2 q34 3 48 29q13 24 92 141q23 34 70 101.5t71 101.5q59 86 100 131q15 9 39 18q25 7 41 7q26 0 29 -39q0 -13 -4 -29q-25 -49 -172 -240q-146 -175 -146 -207q0 -12 101 -12h174q18 -2 39 -2q27 0 61 51q92 111 160 179q58 58 149 114q58 39 101 39q59 0 59 -57 q-9 -104 -151 -326q-9 -12 -9 -18q0 -4 15 -4q159 -3 370 -13q59 -4 181 -8q18 -9 18 -29q0 -14 -22 -14q-25 3 -37 6q-37 16 -539 19q-29 -3 -39 -17q-462 -545 -663 -692q-15 -9 -25 -29q-3 -5 -13 -22t-16 -29q-105 -183 -123 -229q11 0 17 6q60 71 160 149q97 72 166 72 q4 0 36 -4q29 -6 52 -63q24 -56 30 -160q9 -163 66 -199q29 -20 82 -20q56 0 121 39q76 45 147 106q63 51 154 131q107 94 131 113q2 0 2 2q3 2 8 6t8 6q9 3 21 6l2 -10q0 -8 -15 -20q-4 0 -125 -115q-187 -174 -247 -217q-137 -107 -228 -107q-100 6 -137 60 q-54 86 -63 202q-9 166 -56 166q-19 0 -63 -24q-67 -36 -123 -92q-117 -114 -203 -244q-41 -59 -82 -59t-41 45q0 76 137 323q327 611 517 887q16 16 16 31q-2 2 -289 2q-43 0 -55 -27q-164 -255 -326 -537q-538 -929 -538 -1126l10 -65q0 -19 -19 -19q-39 0 -45 88z M299 842q36 25 150 145q362 380 389 445q0 5 -76 8q-25 0 -35 -2h-22q-29 0 -52 -33l-211 -320q-143 -216 -143 -243zM713 1495q0 -10 16 -10q75 0 137 -6q10 0 19 6q5 3 69 102q102 166 105 232q-79 -21 -246 -203q-100 -106 -100 -121z" />
<glyph unicode="tt" horiz-adv-x="1007" d="M-1065 1358q0 7 10 24q40 64 101 64q26 0 45 -8q6 -2 22 -2h13q323 55 718 75q42 0 56 33q59 121 118 191q53 65 82 65q39 0 39 -45q0 -10 -59 -125q-57 -99 -57 -106q0 -4 2 -6t18 -2l123 2q203 6 272 6q37 0 56 32q198 358 266 416q13 8 31 8q57 0 57 -41q0 -7 -10 -24 q-5 -8 -68 -107q-33 -52 -98 -163q-50 -83 -56 -105q7 -10 25 -10q2 2 244 2q262 4 428 4q673 0 700 -53q8 -11 8 -25q0 -15 -32 -26q-4 -2 -15 -2q-64 21 -123 30q-114 21 -395 21q-142 0 -819 -29q-73 0 -107 -49q-219 -398 -397 -793q-158 -351 -293 -788q-6 -24 -6 -45 q0 -100 -49 -103q-24 0 -39 15q-14 14 -14 32q0 24 20 74q66 231 139 436q167 481 521 1180q7 7 10 19q0 12 -2 18q-92 -3 -190.5 -6.5t-148 -5t-67.5 -2.5q-45 0 -65 -39q-105 -178 -211 -394q-155 -321 -420 -921q-24 -56 -156 -354q-98 -212 -98 -285q0 -16 8 -47 q0 -15 -16 -15q-43 0 -43 78q0 151 545 1387q126 279 252 534q8 8 8 29q-18 2 -66 2q-51 0 -198 -10q-123 -11 -291 -37q-157 -24 -226 -43q-23 -10 -38 -10q-34 0 -64 49z" />
<glyph unicode="wr" horiz-adv-x="1988" d="M-270 297q0 45 20 104q44 135 148 265q81 106 125 106q39 0 51 -45q-3 -22 -29 -45q-93 -81 -195 -266q-31 -57 -34 -103q0 -26 22 -26q98 25 273 215q96 110 108 119q20 14 35 14q39 -6 39 -29q0 -19 -19 -55q-89 -160 -104 -369q0 -67 45 -67q16 0 37 6q169 76 258 338 q37 121 37 151l-2 8q-15 12 -15 68q0 63 58 66q17 -3 26 -19q12 -25 15 -78q0 -13 18 -22q70 -31 133 -31q33 0 101 19q65 18 86 61q2 2 2 6q0 5 -6 8q-15 18 -15 35q0 27 31 66q30 37 72 37q45 0 45 -46q0 -42 -25 -73q59 -30 86 -41q45 -20 45 -74q0 -22 -8 -43 q-5 -15 -100 -176q-160 -266 -160 -363q0 -71 90 -71q78 0 203 110q126 112 319 305q213 210 328 250q0 -4 8 -12q-20 -20 -27 -22q-115 -74 -331 -306q-187 -196 -299 -286q-127 -103 -213 -103q-77 0 -115 35q-50 39 -53 117q0 69 37 170q35 97 178 330q24 40 24 69 q0 32 -22 41q-14 2 -47 17q-68 -106 -252 -115q-74 0 -144 20q-5 0 -8 -10q-18 -79 -47 -147q-70 -177 -186 -281q-95 -86 -176 -86q-109 0 -115 139q0 92 27 191l20 73l-149 -137q-104 -90 -179 -90q-15 0 -45 10q-30 9 -30 68z" />
<glyph unicode="S_&#x31;" horiz-adv-x="9058" d="M37 27l4 24q6 15 31 21q590 79 1812 204q1221 121 2529 207q1264 82 2362 82h135q793 -9 1483 -92q362 -47 514 -190q102 -94 102 -207q0 -53 -29 -119q-12 -18 -61 -18q-15 0 -29 2q-19 3 -39 20q-18 18 -18 51v4q0 13 29 33l14 12q12 12 12 52q0 104 -118 188 q-266 188 -1860 209h-156q-1006 0 -2224 -80q-1198 -78 -2347 -194q-1775 -179 -1980 -234q-103 -25 -119 -25q-30 0 -39 21q-8 11 -8 29z" />
<glyph unicode="S_&#x32;" horiz-adv-x="6535" d="M25 422q0 30 24 39q284 106 809 192q1023 172 2536 252q762 41 1462 41q242 0 758 -12q516 -15 882 -86q25 -9 25 -27q0 -10 -8 -18q-4 -6 -19 -10q-249 -3 -745 -39q-503 -40 -1168 -119q-535 -64 -1144 -164q-642 -104 -1041 -201q327 23 836 45q559 25 1087 25 q746 0 1049 -76q16 -6 24 -22q7 -11 7 -21q0 -2 -1 -4.5t-2 -6.5t-2 -7q-8 -13 -36 -15q-223 -7 -467 -26q-283 -22 -529 -60q-274 -43 -452 -100q-10 -4 -27 -4q-11 0 -23 4q-16 10 -16 25v12q0 7 33 24q147 69 387 107q246 35 481 47q215 11 420 14q51 2 152 7 q-432 63 -912 63q-539 0 -1145 -31q-578 -30 -968 -71q-28 3 -41 22q-6 9 -6 23q0 9 6 24q6 16 41 27q522 146 1280 262q724 111 1538 188q795 72 1331 84q-487 68 -1481 68q-1956 0 -3530 -231q-905 -129 -1348 -293q-2 0 -6 -1t-6 -1q-9 0 -21 6q-24 12 -24 45z" />
<glyph unicode="S_&#x33;" horiz-adv-x="8906" d="M-4 6q0 26 61 72q29 19 41 24q9 4 35 11q10 0 41 8q647 176 1983 305q1301 129 2830 170q303 8 670 8q454 0 1095 -22q617 -24 1202 -109q591 -83 906 -223q18 -9 18 -35q0 -16 -6 -31q-19 -22 -45 -22q-11 0 -17 2q-296 137 -847 239q-537 100 -1274 138 q-469 16 -912 16q-333 0 -766 -10q-1541 -44 -2881 -199q-1338 -152 -1948 -342q-24 -10 -45 -26q-35 -27 -49 -27q-5 0 -25 4q-6 1 -36 14q-23 13 -29 31z" />
<glyph unicode="S_&#x34;" horiz-adv-x="1923" d="M45 674q0 26 59 49q46 18 123 18q88 0 156 -8q72 -9 125 -39q52 8 115 11t139 12q136 297 258 506q12 18 31 18h12q11 -3 22 -14q9 -9 9 -19q0 -8 -4 -14q-118 -196 -250 -471l61 8q438 60 600 60q92 0 203 -19q106 -18 176 -106q6 -6 6 -19q0 -55 -55 -55q-23 0 -35 12 q-9 11 -14 25q-2 4 -17 24q-15 15 -30 19q-139 51 -316 51q-26 0 -149 -6q-103 -3 -441 -58q-14 0 -30 -26q-116 -262 -209 -598q-6 -21 -23 -31q-15 -12 -28 -12h-4q-10 0 -19 6q-18 9 -18 37q0 8 4 28q67 219 67 355q0 32 -6 94t-67 111q-6 6 -25 6h-6q-14 -2 -47 -2 q-41 0 -64 2q-13 0 -41.5 1t-44.5 1l-71 -2q-83 0 -123 16q-29 15 -29 29zM557 633q0 -2 2 -4q42 -42 51 -119q2 -20 2 -68q0 -26 -4 -88v-4q0 -4 4 -4q3 0 6 6q35 68 56 148q29 86 49 131q4 6 4 14t-14 8l-146 -12q-10 -3 -10 -8z" />
<glyph unicode="&#xd;" horiz-adv-x="1040" />
<glyph horiz-adv-x="0" />
<glyph unicode=" "  horiz-adv-x="755" />
<glyph unicode="&#x09;" horiz-adv-x="755" />
<glyph unicode="&#xa0;" horiz-adv-x="755" />
<glyph unicode="!" horiz-adv-x="1091" d="M233 129q3 37 39 86q52 64 82 64q35 0 35 -29q0 -34 -20 -90q-15 -43 -54 -74q-8 -6 -24 -10l-8 -4q-50 3 -50 57zM410 449q24 109 163 360l33 63q18 42 99 197q256 502 344 502q30 0 30 -31q0 -27 -6 -39q-328 -545 -520 -909q-60 -108 -80 -172q-3 -12 -18 -12h-6 q-39 0 -39 41z" />
<glyph unicode="&#x22;" horiz-adv-x="716" d="M524 1485v10l11 31q63 149 149 272q30 47 61 47q32 0 35 -24q0 -9 -4 -21q-42 -75 -82 -127q-68 -93 -112 -207q-6 -12 -21 -12q-37 0 -37 31zM657 1432l2 6l5 10q0 7 8 20q28 79 80 170q94 172 137 172q25 0 39 -20q8 -12 8 -21q0 -15 -31 -51q-101 -122 -184 -293 q-9 -22 -27 -22q-37 0 -37 29z" />
<glyph unicode="#" horiz-adv-x="1224" d="M86 496q0 26 31 32q123 13 182 13q21 0 29 8q11 11 34 90l48 125l-189 -14q-35 0 -35 34t31 37q95 25 184 25q34 0 48 14q11 11 26 45q61 126 141 234q12 12 29 12q25 0 25 -23q-7 -20 -140 -272q321 0 330 43q150 307 189 307q34 0 34 -20l-2 -10q-26 -44 -118 -224 q-7 -15 -15 -32t-11.5 -24.5t-4.5 -10.5q6 -13 24 -13q263 0 263 -38q0 -37 -25 -37q-55 8 -115 8l-90 -2l-61 2q-34 0 -49 -41q-62 -146 -86 -209q17 -10 30 -10q22 0 148 -17q73 -9 73 -45q-3 -20 -36 -20q-120 15 -215 18q-42 0 -101 -194q-28 -106 -28 -183 q0 -20 -19 -20q-37 0 -37 61q0 63 72 293q2 4 2 27l-2 12q-9 6 -23 6l-96 -2h-155q-59 -3 -111 -262q-3 -20 -19 -20q-12 0 -20 8q-10 10 -10 14q3 39 16 98q6 36 23 93q12 41 12 49q-10 10 -25 10q-23 -2 -106 -2q-27 0 -31 -2q-6 -2 -16 -2q-33 0 -33 31zM412 551 q4 0 6 -2q0 -2 6 -2q94 0 133 2q37 2 131 2q27 0 33 24l80 199l2 8v9l-6 6q-295 0 -312 -45q-5 -13 -28 -78q-7 -25 -29 -72z" />
<glyph unicode="$" horiz-adv-x="1384" d="M135 387q0 114 74 217q9 12 24 12q9 0 15 -4q8 -5 8 -22q0 -9 -4 -15q-51 -71 -51 -159q0 -193 166 -211q22 0 34 8q6 4 17 29q63 193 139 376q36 83 94 240q-20 13 -65 19q-136 27 -154 92q-14 51 -14 71q0 96 71 179q154 182 375 204q27 3 43 35q8 26 62 123 q57 103 118 143q27 21 43 21q44 0 44 -37q0 -4 -5 -14q-1 -1 -2 -4.5t-2 -5.5t-2 -3q-4 -8 -8 -12q-133 -236 -133 -262q0 -13 14 -21q20 -15 31 -26q49 -55 49 -121q0 -43 -41 -43q-23 0 -35 31l-22 39q-13 16 -51 34q-103 -204 -179 -387q18 -5 82 -20q57 -11 138 -37 q71 -27 104 -72q33 -44 33 -96q0 -74 -49 -168q-24 -46 -56 -82q-203 -250 -510 -323q-53 -14 -69 -66q-62 -211 -70 -317q-3 -31 -35 -31q-14 0 -32 12q-13 7 -13 27q0 111 60 342l2 18q0 17 -35 23q-114 35 -160 110q-43 76 -43 154zM508 199h14q29 0 47 6q0 4 2 4 q225 72 414 283q78 101 78 174q0 88 -105 125q-71 21 -192 40q-14 0 -23 -36q-125 -279 -235 -596zM512 1042q0 -60 111 -81q40 -9 45 -9q26 0 32 29q41 107 115 276l16 37l-2 13l-12 2q-173 -18 -287 -203q-18 -24 -18 -64z" />
<glyph unicode="%" horiz-adv-x="1667" d="M-201 -47q0 33 51 90q743 867 1545 1554q21 13 55 52q-424 -45 -803 -119l2 -4q0 -4 1 -11t1 -10q6 -21 6 -41q0 -97 -125 -182q-113 -76 -172 -76q-33 0 -49 19q-16 22 -16 43q0 59 113 196q35 41 41 56q-21 21 -21 32q0 10 8 23q6 15 23 18q15 6 24 6q5 0 17 -4 q3 0 10 -1t10 -1q28 0 84 41q30 28 105 66q20 4 24 4q33 0 33 -31q0 -21 -16 -24q-32 -8 -86 -47q45 0 57 2q637 122 829 122q52 0 52 -36q0 -40 -467 -451q-465 -420 -1119 -1153q0 -2 -2 -4t-4 -2l-59 -70q82 45 88 51q654 406 897 582q21 12 37 12q41 0 41 -41 q0 -13 -41 -51q-40 -34 -86 -90q0 -14 31 -20q81 -44 81 -148q0 -75 -45 -135q-169 -254 -307 -254q-40 0 -65 31q-29 32 -29 90q0 94 176 344q0 5 10 20l4 9q0 6 -12 6q-27 -3 -385 -242q-222 -145 -393 -250q-45 -26 -82 -26q-72 0 -72 55zM420 1325q61 24 102 86 q17 24 17 41q0 9 -7 23q-58 -64 -112 -150zM668 57q0 -24 12 -24l8 2q58 18 135 117q57 72 74 145q0 59 -14 65q-14 7 -21 7q-27 0 -135 -164q-59 -89 -59 -148z" />
<glyph unicode="&#x26;" horiz-adv-x="1243" d="M442 377q0 78 45 155q107 187 422 310q12 3 15 6q6 4 16 10l-39 4q-133 0 -133 92q6 48 41 86q78 75 178 109q35 15 53 49q117 234 150 234q37 0 37 -31q0 -22 -70 -162q-6 -12 -17 -33.5t-14 -29.5q13 0 23 2q8 2 31 2q18 0 39 -9q19 -9 22 -32q4 -28 4 -37 q0 -50 -24 -74q-25 0 -31 6q-4 2 -8 13q-2 6 -6 14q-11 8 -41 8q-56 0 -66 -16l-8 -11q-6 -16 -14 -16q-7 0 -15 8q-9 6 -18 6q-2 0 -10 -4q-3 -1 -9.5 -4t-9.5 -4q-106 -46 -106 -90q12 -18 116 -27q58 0 58 -57q-3 -21 -23 -31q-2 0 -10 -4q-48 -28 -66 -31 q-130 -48 -204 -94q-83 -52 -156 -149q-59 -80 -59 -150q0 -84 94 -84q129 0 440 168q23 23 70 29q24 0 24 -19q0 -40 -215 -145q-128 -62 -184 -82q-17 -3 -27 -22q-105 -224 -176 -447q-4 -4 -12 -4q-37 0 -37 35q0 31 59 199q43 124 74 192q0 16 -14 16l-33 -2 q-156 0 -156 148z" />
<glyph unicode="'" horiz-adv-x="567" d="M500 1561q0 2 10 32q51 135 139 258q21 35 45 35q9 0 21 -6q12 -8 22 -18q11 -15 11 -21q0 -21 -21 -39q-96 -120 -158 -252q-11 -22 -30 -22q-39 0 -39 33z" />
<glyph unicode="(" horiz-adv-x="1124" d="M143 -315l2 20q6 354 172 836q149 439 375 833q217 378 453 608q181 170 270 226q95 59 119 59q35 0 41 -24q0 -16 -45 -52q-215 -148 -391 -352q-302 -363 -561 -934q-274 -586 -347 -1095q-8 -55 -8 -123q0 -161 68 -226q6 -6 6 -18q0 -27 -23 -27q-6 0 -14 4 q-51 34 -94 140q-23 54 -23 125z" />
<glyph unicode=")" horiz-adv-x="1161" d="M-119 -535q0 17 13 23q76 34 153 143q2 0 2 2q309 399 518 813q200 397 322 906q41 172 41 338q0 249 -96 415q-72 110 -72 119q0 20 12 29q17 10 23 10q14 0 32 -18q185 -182 203 -441l4 -96q-12 -500 -268 -1077q-259 -580 -664 -1075q-104 -125 -172 -125 q-51 0 -51 34z" />
<glyph unicode="*" horiz-adv-x="800" d="M381 1759q0 35 147 115q95 50 95 76v14q-9 59 -9 70q0 26 23 26q14 0 20 -12q15 -36 23 -66q11 22 35 52q49 61 78 61q30 0 30 -27q0 -24 -39 -69l-10 -12q58 28 80 28q29 0 29 -26q0 -30 -27 -39q-22 -11 -55 -21q-30 -10 -60 -22t-30 -33q0 -22 12 -49q13 -60 43 -131 q0 -27 -21 -27q-7 0 -16 6q-7 4 -22 33l-21 49q0 1 -8 21.5t-12 31.5q-13 0 -19 -12q-90 -143 -90 -147q-12 -12 -12 -29q0 -13 -6 -16h-13q-30 0 -30 36q0 28 106 203q-68 -27 -127 -74q-55 -38 -72 -38q-22 0 -22 28z" />
<glyph unicode="+" horiz-adv-x="1054" d="M406 649q0 42 188 80q102 21 149 23q29 3 37 28q49 125 125 219q7 7 15 7q30 0 30 -23q0 -34 -55 -147q-28 -58 -31 -78q6 -2 21 -2q83 0 176 -43q16 -13 16 -27q0 -20 -16 -20q-13 0 -19 2q-41 19 -79 22h-111q-30 0 -113 -213q-67 -177 -67 -258q0 -28 -15 -31h-6 q-8 0 -18 13q-12 12 -15 28q-6 15 -6 29q0 76 103 377l8 18l-2 19l-19 -4q-168 -22 -262 -54q-13 0 -24 11q-10 10 -10 24z" />
<glyph unicode="," horiz-adv-x="589" d="M102 -66q0 15 7 25l55 68q41 57 59 149q7 33 31 39q10 2 41 2q37 -9 37 -57q0 -78 -152 -230q-25 -22 -45 -22q-33 0 -33 26z" />
<glyph unicode="-" horiz-adv-x="1175" d="M446 621q3 32 46 38q53 9 100 9l442 -2q133 0 133 -45q-9 -37 -34 -37q-10 2 -168 2q-180 -3 -269 -6q-78 -5 -94 -5q-124 0 -143 19q-13 10 -13 27z" />
<glyph unicode="." horiz-adv-x="618" d="M156 102q0 5 4 17q28 60 88 106q13 13 26 13q14 0 31 -13q16 -9 31 -43v-8q0 -9 -6 -18q-41 -62 -101 -101q-16 -8 -22 -8q-11 0 -33 14q-18 27 -18 41z" />
<glyph unicode="/" horiz-adv-x="1507" d="M82 -154q0 19 8 35q70 150 275 447q324 480 589 843q281 385 633 799q23 23 55 23q21 0 37 -8q15 -9 19 -21l-2 -4q-18 -77 -205 -297q-1055 -1277 -1344 -1827q-15 -31 -38 -31l-9 2q-18 12 -18 39z" />
<glyph unicode="0" horiz-adv-x="792" d="M-373 195q0 189 111 512q66 190 156 374q149 309 206 324q14 0 27 22q75 118 160 172q32 19 61 19q70 0 111 -84q26 -56 26 -162q-3 -140 -57 -325q-91 -313 -287 -625q-110 -182 -239 -305q-102 -94 -172 -94q-42 0 -66 30q-37 49 -37 142zM-281 195q0 -84 43 -84 q13 0 31 6q90 46 182 174q266 367 396 815q15 29 37 141q13 54 16 148q0 84 -33 123q-19 22 -43 22q-49 0 -82 -45q-35 -44 -49 -72q-15 -31 -27 -47q-8 -11 -8 -33q0 -49 -35 -112q-6 -14 -16 -14q-6 0 -8 2q-1 1 -3 2t-3 2q-24 -7 -99 -168q-44 -84 -61 -156l-8 -14 q-17 -10 -29 -41q-135 -298 -190 -543q-11 -43 -11 -106z" />
<glyph unicode="1" horiz-adv-x="573" d="M-442 84q0 83 245 655q172 395 205 480q51 119 94 208q4 8 4 13q-6 6 -12 6q-18 12 -18 22q0 7 6 13q39 65 106 110q13 8 27 8q18 0 29 -8q29 -14 32 -45q-6 -51 -129 -303q-14 -30 -35.5 -72t-27.5 -55q-235 -484 -410 -905q-37 -73 -47 -168q-3 -14 -24 -14 q-45 0 -45 55z" />
<glyph unicode="2" horiz-adv-x="1196" d="M-610 131q0 33 24 51l228 148q436 284 690 657q157 222 157 389q0 31 -10 54q-9 20 -67 20q-129 0 -279 -102q-2 0 -2 -2q-67 -39 -96 -101q-12 -26 -41 -26q-23 10 -47 53q-13 16 -13 28q0 2 5 17q1 3 4 8t4 6t2 4t2 4l3 4q3 4 5 5q157 157 377 213q42 10 76 10 q86 0 129 -49q45 -48 45 -125q0 -102 -80 -279q-44 -90 -70 -127q-306 -457 -829 -766q-15 -10 -25 -18q-12 -9 -39 -25q88 6 178 6q210 0 510 -38q126 -15 252 -27q12 0 25 22q21 34 47 37q18 0 33 -24q14 -25 14 -62q-3 -18 -18 -39q-16 -22 -41 -22q-94 3 -174 20 q-97 17 -105 17q-334 51 -586 51q-159 0 -227 -39q-16 -4 -20 -4q-41 0 -41 51z" />
<glyph unicode="3" horiz-adv-x="1247" d="M-348 389q0 83 88 211q8 8 12 8q31 0 31 -26q0 -10 -29 -54q-45 -71 -45 -139q0 -37 12 -78q95 -276 355 -276q54 0 112 12q178 41 295 133q123 96 203 256q55 101 55 187q0 113 -98 168q-64 37 -123 40q-17 1 -40.5 3t-30.5 2q-59 0 -121 -15q-6 -2 -19 -2q-23 0 -35 23 v8q0 40 43 74q193 138 209 151q234 175 234 309q0 41 -45 70q-62 39 -144 39q-100 0 -192 -47q-85 -43 -135 -121q-11 -14 -31 -14q-41 0 -41 45q0 20 25 45q160 160 370 160q112 0 185 -43q92 -56 92 -144q0 -190 -381 -448q0 -2 -2 -2q-16 -12 -31 -27h14q70 0 160 -23 q87 -21 146 -86q57 -63 57 -174q0 -114 -66 -231q-185 -315 -538 -397q-70 -17 -123 -17q-106 0 -191 45q-219 121 -237 375z" />
<glyph unicode="4" horiz-adv-x="1255" d="M-201 752q0 35 43 75q57 57 111 107q159 148 618 586q53 53 74 53q37 0 37 -35q0 -14 -90 -115q-271 -296 -655 -606q-19 -13 -29 -29q7 -7 153 -10q99 0 193 6q110 7 192 7l105 -3q17 0 33 29q76 169 161 316q74 136 109 206q26 57 29 105q6 43 18 69q14 39 62 39 q61 0 61 -36q0 -42 -254 -510q-61 -111 -102 -195q-11 -11 -11 -29q120 -19 189 -57q0 -6 -6 -18q-7 -11 -19 -11q-118 23 -178 23q-21 0 -31 -23q-213 -458 -286 -673q-15 -46 -43 -46q-23 3 -23 37q0 9 4 25q92 291 268 680q-19 8 -96 8q-105 0 -350 -10q-144 -6 -203 -6 q-84 0 -84 41z" />
<glyph unicode="5" horiz-adv-x="1120" d="M-672 141v43q0 81 21 84q33 0 33 -12q-1 -7 -7 -37q-2 -12 -2 -43q0 -108 133 -135q58 -18 115 -18q87 0 164 30q384 179 563 578q31 85 31 164q0 92 -51 155q-72 84 -230 84q-145 0 -354 -90q-47 -20 -61 -20q-21 0 -35 14q-17 17 -17 31q0 22 23 63q5 5 41 72 q35 56 80 145q55 113 110 209q6 9 6 23q-24 0 -34 -2h-45q-20 0 -23 39q0 34 86 43l51 6q14 0 25 20q8 19 39 43q9 6 22 6q39 0 39 -28q0 -12 -6 -21q-6 -12 -6 -20q12 -4 51 -4l154 4q411 0 411 -74q0 -31 -24 -31q-52 34 -142 37q-59 2 -174 2q-323 0 -335 -37l-70 -137 q-51 -111 -139 -264q-13 -16 -13 -23l9 -2l18 6q162 64 291 64q101 0 200 -45t134 -117q32 -68 32 -149q0 -107 -49 -217q-114 -283 -352 -453q-214 -158 -416 -158q-187 0 -264 99q-30 44 -33 73z" />
<glyph unicode="6" horiz-adv-x="1052" d="M-573 324q0 8 161 165q22 21 31 50q211 607 700 1032q82 82 150 82q42 0 45 -19q2 -14 2 -24q0 -24 -10 -41q-24 -49 -47 -49q-6 0 -13 10q-3 10 -8 10q-8 0 -10 -2t-6 -2q-61 -30 -127 -96q-370 -355 -555 -787q0 -2 -4 -10q-2 -4 -2 -12v-6q8 0 12 4q2 2 10 6 q7 13 158 113q263 172 408 172q79 0 135 -39q88 -55 88 -176q0 -205 -187 -453q-94 -126 -235 -219q-96 -65 -158 -74q-57 -8 -86 -8q-84 0 -166 43q-68 41 -98 112q-34 70 -37 121q-2 35 -2 72q0 79 16 147q-28 -14 -96 -79q-50 -50 -59 -52q-10 0 -10 9zM-354 291 q0 -283 245 -283q160 0 318 158q151 145 237 336q41 96 41 198q-3 166 -170 166q-92 0 -243 -80q-197 -105 -365 -239q-30 -17 -51 -137q-12 -59 -12 -119z" />
<glyph unicode="7" horiz-adv-x="1292" d="M-307 -31q0 45 219 336q430 560 735 889q208 232 252 291q12 21 12 35q0 26 -55 26q-31 2 -129 2q-110 0 -233 -12q-36 -7 -95 -10q-41 -6 -69 -6q-45 0 -88 16q-29 19 -29 68q0 34 23 57q11 8 20 8q4 0 6 -2q13 -4 25 -14q12 -15 39 -27t63 -12q30 0 62 4q184 20 297 20 q91 0 182 -8q100 -6 100 -98q0 -52 -24 -82q-59 -69 -154 -164q-167 -178 -479 -530q-374 -423 -518 -629q-55 -76 -119 -174q-10 -16 -23 -16q-20 0 -20 32z" />
<glyph unicode="8" horiz-adv-x="1114" d="M-553 205q0 128 96 282q183 307 439 551q10 0 16 19q-9 12 -51 37q-160 95 -160 176q0 62 70 129q73 73 196 139q244 137 426 137q185 0 185 -143q0 -12 -9 -57q-55 -240 -225 -422q-59 -59 -100 -62q-27 0 -43 19q-17 20 -17 47q0 28 19 28q6 0 10 -2q2 -1 5 -2 l4.5 -1.5t2.5 -0.5q14 0 23 15q66 67 131 161q121 183 121 277q-3 52 -33 61q-27 6 -55 6q-154 -6 -330 -79q-154 -68 -248 -156q-54 -57 -57 -78v-20q0 -40 33 -66q40 -34 108 -76q36 -26 45 -26q12 0 25 10q92 77 190 127q21 12 35 12t14 -14q0 -9 -16 -12q-13 -5 -72 -43 q-115 -74 -133 -109q328 -240 328 -504q0 -74 -29 -166q-120 -360 -491 -448q-55 -14 -115 -14q-102 0 -193 45q-111 58 -129 120q-16 69 -16 103zM-483 215q0 -110 96 -170q73 -49 184 -49q8 1 23 2t22 2q13 0 33 4q175 34 283 129q104 91 170 262q32 85 32 174 q0 235 -299 445q-8 8 -18 8q-7 0 -18 -14l-9 -7q-263 -257 -430 -575q-69 -117 -69 -211z" />
<glyph unicode="9" horiz-adv-x="997" d="M-209 838q0 112 111 276q170 267 338 404q132 108 252 108q66 0 102 -39q46 -49 49 -121l84 84q6 6 18 6q23 0 43 -20q13 -13 13 -25q0 -13 -25 -61q-148 -269 -262 -537q-43 -98 -115 -249q-116 -223 -202 -504q-46 -137 -68 -226q-3 -18 -31 -18t-28 25q46 262 241 739 q117 276 250 545q88 174 88 180l-2 2l-49 -51q-558 -594 -739 -594q-62 0 -68 76zM-125 872q0 -30 27 -30q69 9 233 147q83 69 127 113q236 217 336 328l-25 -3q-23 0 -32 15q-8 13 -15 31q-11 25 -22 36q-15 11 -33 11q-83 0 -184 -72q-145 -104 -285 -318 q-100 -156 -119 -208q-8 -27 -8 -50z" />
<glyph unicode=":" horiz-adv-x="512" d="M102 336q0 15 11 33q9 17 32 26q14 4 54 8q28 0 28 -24q0 -51 -47 -92l-18 -6h-4q-50 0 -56 55zM264 707q0 61 49 61q14 0 27 -8q15 -9 25 -19q8 -8 8 -18q-3 -23 -23 -43q-21 -21 -43 -21q-43 3 -43 48z" />
<glyph unicode=";" horiz-adv-x="675" d="M254 178q0 11 12 29l6 6q57 60 107 131q12 18 31 18q41 -6 41 -49q-3 -39 -33 -63q-101 -91 -133 -98q-15 0 -23 8t-8 18zM473 696q3 50 47 70q16 4 21 4q25 0 45 -20q12 -9 12 -25q0 -24 -37 -61q-20 -23 -41 -23q-44 0 -47 55z" />
<glyph unicode="&#x3c;" horiz-adv-x="974" d="M213 567q0 50 106 99q59 30 127 69q404 217 472 217q40 0 40 -39q0 -32 -14 -32l-16 4q-7 0 -254 -137q-125 -80 -316 -173q-8 -5 -8 -12q28 -28 187 -112q194 -104 223 -119q33 -20 33 -49q0 -7 -7 -17q-8 -11 -18 -14q-12 -6 -20 -6q-6 0 -76 37q-366 185 -432 235 q-27 27 -27 49z" />
<glyph unicode="=" horiz-adv-x="997" d="M-315 459q0 57 292 57l134 -2q166 0 272 -25q88 -21 88 -49q0 -15 -10 -22q-16 -4 -21 -4q-118 37 -319 37q-123 -3 -246 -15q-98 -8 -145 -8q-45 0 -45 31zM-233 672q0 24 20 33q76 27 465 36q138 0 219 -20q29 -10 29 -29q0 -26 -45 -26q-173 10 -195 10 q-173 0 -442 -37h-8l-5 -2q-38 0 -38 35z" />
<glyph unicode="&#x3e;" horiz-adv-x="944" d="M233 315q0 17 125 99l187 118q225 139 235 162q-159 70 -309 111q-180 49 -180 84q0 13 8 24q10 13 27 13q47 0 94 -15q221 -50 418 -151q59 -27 59 -62q0 -54 -336 -239q-145 -78 -276 -166q-11 -8 -25 -8q-27 0 -27 30z" />
<glyph unicode="?" horiz-adv-x="1515" d="M225 98q0 30 21 54q23 23 51 26q27 0 43 -16q18 -18 18 -47q0 -34 -20 -54q-19 -22 -49 -22q-25 0 -43 18q-18 15 -21 41zM354 401q53 158 308 447q154 173 272 276q444 370 444 596q0 110 -133 154q-64 22 -121 22q-38 0 -96 -14q-89 -24 -151 -59q-130 -77 -179 -156 q-14 -14 -14 -25q0 -7 16 -20q5 -2 5 -10q0 -11 -11 -19q-20 -20 -69 -20q-23 3 -41 24q-20 20 -23 43q0 70 88 146q173 148 406 201q35 6 78 6q65 0 139 -23q113 -37 166 -108q53 -70 53 -158q0 -125 -90 -246q-115 -161 -350 -358q-29 -29 -117 -103q-235 -196 -436 -456 q-44 -63 -82 -150q-11 -20 -31 -20q-15 0 -25 10q-6 9 -6 20z" />
<glyph unicode="@" horiz-adv-x="1466" d="M201 379q0 264 143 477q201 287 584 287q146 0 258 -53q139 -68 166 -156q28 -89 28 -135q0 -83 -43 -168q-120 -236 -352 -324q-49 -18 -84 -18q-42 0 -72 24q-38 28 -38 88q0 46 14 84l14 35q1 8 15 39q-18 -3 -27 -12q-13 -13 -62 -41q-76 -49 -124 -49q-37 0 -54 20 q-16 19 -16 47q0 42 27 80q72 106 184 174q44 27 102 27q45 0 84 -39q37 -40 37 -57q0 -18 -20 -54q-31 -52 -76 -151q-23 -54 -23 -90q0 -52 47 -52q38 0 107 29q96 58 154 119q60 66 106 160q31 67 31 135q0 127 -129 201q-130 71 -273 71q-32 0 -94 -8 q-199 -27 -313 -135q-113 -107 -178 -299q-40 -107 -43 -172q-1 -18 -2 -37t-2 -31t-1 -18q0 -125 48 -236q37 -82 94 -121q67 -49 205 -49q105 0 204 27q205 52 371 184q2 0 4 2q4 4 8 6q6 3 13 3q9 0 12 -19q0 -13 -18 -31q-129 -100 -248 -155q-193 -82 -387 -82 q-249 0 -332 215q-49 125 -49 258zM662 563q95 38 200 129q-4 2 -16 2q-28 0 -78 -24q-62 -33 -106 -107z" />
<glyph unicode="A" d="M106 485l5 25q3 16 14 27q12 12 25 12q10 0 16 -2q12 -4 20 -4q9 0 21 4q338 103 774 196q44 9 66 48q69 121 159 258q234 362 512 718q333 426 590 619q171 131 285 131q84 0 131 -86q22 -52 22 -117q0 -206 -129 -547q-115 -291 -272 -624l-100 -215q20 -4 28 -4 q11 0 17 2q4 2 12 2l262 22q35 2 168 2q9 0 29 -10q15 -9 18 -29q0 -24 -29 -24l-22 -2q-107 -3 -338 -25q-49 -7 -133 -14q-22 -3 -41 -14q-44 -24 -520 -1078q-263 -580 -328 -704q-40 -77 -47 -94q-10 -17 -41 -17h-12q-66 0 -66 43q0 32 12 53l136 205q254 551 417 879 q332 681 332 694q0 10 -20 10q-69 -5 -269 -34q-336 -53 -622 -109q-42 -3 -66 -41q-248 -382 -366 -629q-8 -19 -8 -32q0 -12 12 -21q10 -10 10 -29q0 -12 -6 -30q-20 -75 -105 -156q-19 -16 -49 -16q-38 0 -71 20q-60 35 -60 84q0 78 352 625l84 135q13 23 17 33 q-12 4 -19 4l-12 -4q-4 -2 -10 -2q-316 -73 -600 -177l-10 -4q-65 -24 -107 -24l-24 2q-44 15 -44 65zM1212 795q110 15 349 49q239 37 550 69q33 3 43 33q56 110 183 391q200 444 272 703l6 28q41 139 41 224q0 125 -82 125q-24 0 -67 -19q-131 -70 -281 -217 q-276 -270 -584 -713q-230 -333 -430 -673z" />
<glyph unicode="B" horiz-adv-x="2834" d="M156 -426q0 60 22 131q54 148 150 270q180 232 469 404q43 26 61 74q245 616 524 1220q137 304 199 438q46 98 111 224q4 8 4 10q0 9 -13 16q-12 12 -12 21q0 25 66 100q65 74 100 74q54 0 72 -57q4 -8 4 -29q0 -27 -19 -70l-110 -205q-107 -195 -164 -307h4l2 -2 q179 194 373 342q260 199 432 199q115 0 115 -131q0 -32 -11 -74q-82 -236 -352 -491q-207 -201 -241 -220q-12 -15 -33 -30q5 0 33 4q80 24 198 24q8 0 90 -4q59 -3 178 -41q109 -35 183 -112q129 -138 129 -342q0 -121 -47 -260q-99 -290 -375 -627q-185 -225 -412 -418 q-380 -324 -776 -461q-233 -82 -442 -82q-92 0 -181 15q-117 21 -202 102q-129 123 -129 295zM233 -422q0 -144 111 -246q101 -94 297 -94q178 0 426 80q494 164 926 596q305 302 512 692q108 211 108 408q0 39 -2 82q-3 63 -65 149q-63 87 -193 127q-125 35 -239 35 q-32 0 -142 -10q-93 -11 -256 -97q-16 -8 -41 -8h-10q-57 0 -57 45q0 14 8 33q11 27 166 152q126 102 258 219q303 268 391 502q8 13 8 32q0 15 -2 25q-3 16 -43 16q-111 0 -303 -151q-159 -123 -330 -303q-102 -114 -123 -142q-172 -208 -237 -327q-120 -218 -332 -688 q-40 -90 -82 -179l-2 -16q0 -12 6 -12q1 0 13 4q148 63 249 92q181 50 443 74q153 10 272 10q271 0 373 -51q12 -9 12 -25q0 -18 -8 -29l-29 -16q-14 0 -20 18q-7 20 -17 23q-132 33 -325 33q-93 0 -223 -13q-296 -30 -500 -104q-277 -106 -307 -172q-2 -7 -10.5 -24.5 t-12.5 -26.5q-142 -320 -199 -570q-10 -10 -34 -10q-47 0 -47 29q0 8 10 41q4 8 8 24q44 161 98 322l51 158q0 4 -2 4l-10 -4q-257 -164 -416 -389q-127 -177 -127 -318z" />
<glyph unicode="C" horiz-adv-x="2828" d="M266 -8q0 309 131 653q165 439 471 846q290 384 576 612q243 208 502 330q238 113 438 113q72 0 143 -15q111 -27 174 -114q56 -77 56 -172q0 -116 -70 -295q-120 -302 -246 -480q-36 -45 -92 -45q-34 0 -57 17q-35 24 -35 59t27 82q22 40 53 64q33 22 84 96 q92 143 133 254q9 24 18 45l29 74q22 64 22 116q0 51 -26 105q-42 76 -225 76q-208 0 -453 -136q-334 -184 -647 -503q-426 -438 -676 -953q-219 -451 -219 -844q0 -95 12 -186q20 -151 117 -268q156 -193 495 -193q209 0 447 86q333 123 698 420q274 225 650 604l172 170 q18 15 32 15q25 0 25 -27q0 -22 -225 -262q-300 -324 -592 -563q-381 -313 -742 -447q-244 -90 -458 -90q-173 0 -332 57q-165 56 -258 168q-152 181 -152 531z" />
<glyph unicode="D" horiz-adv-x="2557" d="M86 -197q3 270 166 527q254 386 762 706q104 61 145 150q247 504 469 794q66 84 105 84q30 0 30 -34q0 -51 -43 -115q-384 -635 -434 -723h8q11 0 19 8q196 99 311 133l10 2q8 0 19 -8q10 -7 10 -24q0 -18 -21 -27q-91 -28 -182 -74q-150 -79 -200 -112q-15 -9 -33 -46 q-2 0 -2 -2q-132 -238 -299 -649q-187 -459 -221 -682q-3 -33 -46 -39q-12 0 -24 9q-12 6 -12 14q0 162 172 627q117 317 256 645l2 8l-19 -8q-339 -227 -522 -416q-242 -251 -315 -508q-37 -124 -37 -238q0 -163 78 -247q107 -125 327 -125q172 0 365 75q252 92 473 273 q818 652 1018 1456q51 215 51 412q0 175 -53 336q-54 160 -172 241q-122 84 -291 84q-277 0 -522 -78q-242 -76 -469 -239q-43 -34 -43 -70q-6 -32 -35 -47q-52 -25 -96 -25h-25q-20 3 -35 27q-6 12 -6 27q0 47 49 96q72 61 197 131l71 43q207 125 426 184q248 68 478 68 q252 0 432 -174q89 -89 135 -217q55 -162 55 -408q0 -160 -22 -278q-85 -441 -369 -869q-291 -432 -741 -764q-358 -268 -781 -342q-49 -8 -110 -8q-93 0 -193 33q-107 35 -184 137q-79 101 -82 266z" />
<glyph unicode="E" horiz-adv-x="3012" d="M119 -104q0 210 106 409q165 310 516 557q326 227 648 338l90 33l-82 12q-38 5 -142 27q-163 34 -245 125q-54 63 -54 137q0 82 70 197q96 151 234 280q315 288 704 457q162 72 334 72h57q46 0 131 -31q75 -31 115 -88q49 -73 49 -164q0 -52 -16 -111q-67 -226 -246 -473 q-101 -137 -190 -137q-48 0 -70 35q-10 15 -10 37q0 25 26 73q41 80 82 80l21 -2q13 0 30 17l7 10q77 102 149 235q72 135 72 226q0 24 -13 71q-12 44 -82 74q-76 29 -141 29q-205 0 -618 -250q-348 -211 -533 -475q-53 -76 -53 -142q0 -20 4 -45q3 -36 61 -79 q101 -79 314 -109q144 -9 176 -25q31 -19 31 -51q0 -27 -19 -43q-29 -29 -194 -72q-141 -46 -297 -126q-348 -176 -592 -426q-284 -291 -336 -603q-6 -35 -6 -73q0 -145 72 -277q50 -93 141 -166q177 -143 500 -143q264 0 524 94q361 128 766 445q387 296 872 749 q14 14 33 14q18 0 18 -16q0 -14 -16 -33q-431 -414 -879 -774q-708 -567 -1343 -567q-382 0 -588 203q-188 182 -188 465z" />
<glyph unicode="F" horiz-adv-x="1826" d="M20 2038q0 33 19 55q41 35 170 66l86 16q712 139 1259 139h33q26 0 39 19q14 21 39 53q9 11 27.5 34t27.5 34q28 31 43 40q16 13 31 13q1 0 21 -4q13 -3 24 -21q10 -17 10 -33q0 -39 -77 -151q19 -8 38 -8q45 0 439 -23q548 -38 886 -127l23 -12q14 -11 14 -35 q0 -39 -59 -39q-22 0 -31 6q-67 30 -125 43l-35 8q-140 41 -399 62q-48 2 -76 8l-344 29q-225 18 -352 18q-43 0 -70 -43q-13 -21 -53 -61q-22 -22 -121 -193q-168 -292 -426 -766q-122 -226 -127 -231q-2 -4 -2 -14v-7h17q26 0 153 13q309 26 455 26q128 0 190 -20 q41 -15 41 -35q0 -29 -139 -29q-313 0 -745 -53q-32 -3 -43 -29q-11 -24 -29 -57q-60 -124 -70 -174q-74 -348 -168 -627q-93 -277 -239 -577q-6 -11 -49 -78q-55 -82 -101 -82q-10 0 -28 6q-20 7 -35 37q-15 27 -15 74q0 33 19 114q42 172 117 365q72 184 118 276 q211 482 258 553q50 96 60 150q-3 10 -14 10l-13 -2q-60 -10 -194 -16l-41 -2q-47 0 -47 43q0 66 315 100q14 0 23 21q12 24 30 200q10 130 10 228q0 365 -147 467q-78 47 -164 75q-143 43 -289 56q-110 9 -139 28q-29 20 -29 64zM160 2038l127 -23q96 -14 194 -39 q238 -61 312 -225q73 -162 73 -428v-29q-6 -267 -39 -370l11 16q132 267 333 635q208 378 359 618q8 8 8 17l-2 8q-236 0 -518 -27q-288 -27 -518 -73l-17 -2q-260 -49 -282 -62q-23 -3 -41 -16zM270 -608q92 92 217 438q118 323 136 479q-37 -67 -179 -426l-22 -59 q-146 -347 -152 -432z" />
<glyph unicode="G" horiz-adv-x="3366" d="M78 158q0 367 162 745q93 217 200 381q363 562 918 911q532 335 971 338q201 0 387 -65q137 -56 221 -174q87 -122 90 -260q0 -54 -21 -127q-52 -170 -143 -275q-59 -65 -117 -65q-20 0 -41 12t-34 35t-13 41v10q8 55 52 125q6 14 34 14h13q25 0 36 23q70 119 70 221 q0 77 -43 150q-39 63 -102 110q-125 84 -383 84q-34 0 -142 -6q-114 -6 -241 -51q-256 -92 -518 -252q-538 -335 -887 -850q-363 -537 -363 -1088q0 -172 45 -321q76 -248 328 -344q122 -45 256 -45q42 0 160 16q112 15 287 103q316 154 636 499q266 284 443 588 q57 79 123 205q-204 -15 -402 -35q-161 -21 -352 -68l-20 -2q-21 0 -39 11q-17 14 -17 28q0 90 305 140q261 43 537 43h14q31 0 43 26q86 154 150 154q10 0 22 -6q14 -5 23 -21q6 -15 6 -26q0 -26 -43 -105l-12 -22q12 -9 33 -9q61 0 204 -14q286 -31 412 -98q16 -8 20 -33 q0 -22 -10 -39q-13 -16 -26 -16l-13 2q-45 17 -69 22q-250 70 -566 70l-20 -2q-32 -6 -229 -434q-156 -338 -265 -596q-123 -292 -141 -381l-14 -66q-41 -181 -41 -246q0 -16 2 -20q0 -2 1 -5.5t1 -4.5q0 -13 -19 -13q-67 0 -67 86q3 207 92 478q126 383 328 776l4 12v2 q-3 0 -10 -10q-181 -286 -455 -551q-298 -290 -625 -428q-219 -92 -426 -92q-132 0 -266 41q-265 91 -371 379q-63 171 -63 385z" />
<glyph unicode="H" horiz-adv-x="2895" d="M184 326q0 44 43 65q323 153 791 260q20 4 42.5 9.5t49 12t41.5 9.5q126 30 258 57q40 6 55 47q209 507 449 969q159 307 309 516q85 123 145 176q21 15 41 15q38 0 64 -33q25 -31 25 -76q0 -4 -3 -31q-3 -26 -55 -81q-15 -15 -33 -15l-8 2q-19 -6 -41 -41 q-130 -172 -274 -422q-287 -493 -496 -960q-12 -23 -14 -45q34 2 96 14h4q189 32 373 55q179 19 377 19q40 0 43 -31q-3 -18 -33 -24q-205 -11 -346 -31q-139 -22 -334 -64l-61 -12q-147 -28 -170 -45q-25 -19 -201 -477q-101 -265 -158 -463q-20 -82 -20 -162q0 -38 8 -78 l2 -10q0 -11 -10 -31q-13 -26 -43 -26q-22 0 -33 20q-13 19 -16 41q-4 28 -4 47q0 24 12 74q9 47 24 98q112 416 308 912l6 12l8 29q0 8 -8 8l-8 -2q-70 -6 -207 -47l-90 -25q-439 -115 -756 -250q-12 -6 -12 -16q0 -11 -21 -23q-29 -16 -53 -16q-47 0 -62 41q-4 10 -4 29z M1880 -1298q127 565 506 1585q235 639 350 913q250 600 434 965q164 331 228 375l45 20q84 -6 84 -104q0 -49 -33 -78l-19 -13q-47 -23 -282 -491q-82 -168 -144 -289q-110 -219 -184 -375q-100 -206 -203 -462q-511 -1277 -647 -1749q-62 -199 -80 -308q-3 -14 -26 -14h-8 q-10 5 -13 8q-8 3 -8 17z" />
<glyph unicode="I" horiz-adv-x="1337" d="M106 1454l3 21q20 71 77 149q261 354 527 578q133 115 297 208q189 113 319 113q106 0 187 -72q88 -82 88 -219q-3 -209 -195 -614q-124 -262 -352 -668q-181 -314 -416 -800q-301 -623 -393 -914q-9 -18 -25 -18q-4 0 -16 4q-8 3 -14 12q-7 7 -7 12q0 35 74 224 q309 776 795 1683l32 59q157 279 263 523q129 295 129 460q0 20 -4 56q-24 147 -146 147q-91 0 -221 -74q-156 -86 -334 -241q-259 -229 -438 -467q-62 -74 -68 -148q-3 -36 -32 -55q-30 -18 -64 -18q-31 0 -49 18q-17 20 -17 41z" />
<glyph unicode="J" horiz-adv-x="2224" d="M8 -559q0 257 236 612q256 387 587 641q183 141 383 277q374 252 820 434q39 14 51 55q97 256 100 457q0 122 -35 203q-71 139 -204 139q-69 0 -164 -25q-188 -50 -367 -133q-203 -94 -338 -188q-241 -157 -393 -340q-88 -110 -133 -227q-13 -32 -35 -48q-26 -16 -47 -16 l-16 2q-41 15 -41 70q0 31 6 49q154 371 760 711q418 234 739 249q279 0 350 -243q27 -82 27 -174q0 -22 -4 -68q-23 -217 -72 -362q-13 -23 -16 -58q111 41 182 58q46 16 70 16q15 0 30 -12t15 -35q0 -24 -15 -33q-12 -12 -18 -12q-4 4 -4 6q-1 1 -2 3t-2 3q-6 16 -17 16 q-29 0 -96 -24q-95 -33 -145 -53q-28 -6 -37 -33q-80 -192 -211 -440q-285 -541 -643 -996q-402 -519 -772 -719q-119 -61 -240 -61q-169 0 -236 102q-53 74 -53 197zM88 -549q0 -103 39 -162q46 -73 176 -73q97 0 193 51q271 139 610 555q278 345 559 811q230 381 346 645 l12 31q5 15 5 18l-9 2q-12 -3 -30 -12q-337 -145 -615 -320q-297 -187 -561 -411q-135 -114 -274 -269q-292 -328 -412 -651q-39 -101 -39 -215z" />
<glyph unicode="K" horiz-adv-x="2017" d="M41 -717q0 35 8 66q55 250 225 641q121 287 121 305l4 12q-20 0 -30 2q-12 2 -37 2q-68 0 -111 -30q-56 -41 -92 -41q-11 0 -25 2q-20 0 -20 32q0 22 25 58q22 31 86 53q25 7 57 29l123 78q30 17 98 61q32 19 47 57q283 700 637 1360q151 289 313 486q13 16 35 32 q21 15 43 15q19 0 37 -15q17 -17 17 -41q0 -33 -19 -61q-164 -225 -295 -461q-122 -219 -254 -483l-88 -174q-89 -171 -256 -557l6 -6q165 120 723 598q490 410 774 643q131 104 140 112q73 63 121 101q107 84 141 84q30 0 49 -31q10 -23 10 -55q0 -27 -8 -48 q-9 -27 -49 -36q-41 -9 -66 -31q-365 -280 -757 -606q-673 -568 -1141 -906q-34 -20 -49 -59q-20 -54 -21 -57q-7 -23 -8 -23q-2 -4 -2 -8q0 -13 14 -16q27 -9 205 -91q140 -65 391 -190q435 -227 631 -448q8 -11 12 -29q0 -19 -6 -25q-9 -6 -16 -6q-17 0 -31 14 q-175 194 -510 375q-240 128 -579 271l-5 2q-107 43 -141 43q-14 0 -24 -19l-82 -194q-204 -482 -281 -748l-14 -41q-23 -57 -49 -57q-27 6 -27 59zM346 375l49 -2q8 0 17 6q9 3 24 43q-64 -24 -90 -47z" />
<glyph unicode="L" horiz-adv-x="1536" d="M53 -549q0 64 23 189q53 239 172 522q225 551 551 1163q40 75 65 125q74 137 185 338q239 439 428 612q44 41 96 41q36 0 57 -18q15 -15 15 -35q0 -59 -39 -82q-2 -2 -5.5 -5t-6 -5t-3.5 -4q-187 -199 -399 -561q-200 -339 -467 -852q-366 -695 -514 -1196 q-43 -128 -43 -226v-41q3 -36 35 -71q29 -36 108 -39q211 12 469 137q425 208 815 278q115 21 215 21q168 0 168 -37q0 -9 -8 -14q-12 -4 -14 -4h-4q-78 8 -115 8t-102 -6q-94 -8 -342 -76q-282 -78 -590 -236q-316 -156 -502 -170h-10q-120 0 -191 86q-47 53 -47 158z" />
<glyph unicode="M" horiz-adv-x="2514" d="M4 -313q3 58 29 155q46 181 123 316q268 535 716 1204q130 192 275 346q140 152 194 152q23 0 50 -27q13 8 20 25l6 8l228 332q190 274 208 292q17 17 45 17q37 0 60 -33q10 -17 10 -37q0 -70 -299 -772q-93 -211 -213 -528q-199 -518 -334 -990q-33 -107 -55 -231 q-12 -59 -12 -96q11 3 26 18l6 8q83 94 168 215q11 18 25 35q212 299 475 715q393 624 881 1284q31 42 94 135q158 242 205 242q29 0 47 -21q10 -10 10 -24l-2 -14q-127 -242 -297 -529q-178 -297 -305 -602q-145 -358 -258 -713q-59 -189 -107 -456l-2 -9 q-36 -197 -57 -360q-45 -306 -45 -514q0 -201 68 -301q10 -17 10 -25q0 -37 -39 -37q-22 0 -35 13q-95 106 -104 383q0 694 213 1399q131 437 417 1015q7 20 19 39q-27 -31 -33 -45q-158 -224 -432 -657q-296 -466 -571 -864q-291 -418 -388 -496q-28 -19 -57 -19 q-39 0 -63 21q-26 20 -29 53q0 107 37 271q61 253 221 751q80 250 90 270q124 351 313 781q50 114 117 274l2 10l-8 -8q-55 -88 -217 -329l-68 -101q-587 -890 -993 -1575q-47 -83 -88 -153q-144 -231 -170 -262q-27 -27 -61 -27q-27 0 -45 18q-18 21 -21 58zM195 -53 l211 356q242 391 702 1083l197 295q14 22 14 33q-17 -7 -29 -22q-136 -151 -307 -402q-277 -411 -580 -944q-199 -342 -208 -399z" />
<glyph unicode="N" horiz-adv-x="2883" d="M61 -872q0 70 66 223q24 61 33 90q110 310 282 663q334 686 748 1317l55 88l164 250q235 348 430 549q159 164 256 164q113 0 113 -152q0 -52 -15 -125q-64 -324 -270 -970q-91 -279 -178 -592q-110 -393 -180 -828q-13 -80 -13 -153v-80q3 -66 35 -131q17 -33 35 -33 q13 0 31 6q133 47 305 307q129 193 217 377q198 414 508 1170l49 121q64 156 129 323q59 154 148 369q112 287 251 444q34 37 58 37q26 0 26 -22q0 -20 -22 -39q-97 -76 -162 -224q-106 -245 -194 -514q-26 -76 -125 -346q-150 -377 -435 -1046l-61 -142q-73 -160 -104 -223 q-163 -328 -330 -534q-168 -207 -283 -207q-20 0 -57 12q-39 9 -80 68q-39 54 -61 127q-21 70 -21 133v12q9 506 184 1085q62 203 140 431q147 431 213 659q104 351 104 506q0 31 -18 31q-26 0 -72 -43q-72 -67 -193 -195q-150 -167 -307 -420q-100 -156 -102 -160 q-377 -558 -752 -1308q-163 -334 -291 -709q-74 -210 -110 -381q-12 -69 -84 -69q-60 9 -60 84z" />
<glyph unicode="O" horiz-adv-x="2156" d="M106 -246q0 262 144 670q111 310 270 641q12 24 12 51v14q-12 83 -12 164q0 216 84 457q127 373 379 631q115 115 268 190q156 73 314 76q216 0 370 -139q103 -93 158 -199q88 -177 88 -432v-47q-3 -187 -57 -408q-99 -401 -320 -848q-201 -408 -409 -704 q-247 -345 -578 -553q-166 -100 -311 -100q-35 0 -86 2q-77 3 -178 110q-112 121 -133 351q-3 38 -3 73zM221 -236q0 -222 92 -337q84 -97 213 -97q172 0 373 158q377 294 657 780q319 545 474 1080q73 265 73 505q0 84 -10 189q-27 265 -252 438q-126 100 -285 100 q-78 0 -163 -24q-170 -50 -310 -172q-287 -251 -415 -647q-80 -232 -80 -426l2 -66q1 -2 2 -7.5t2 -8.5q0 -8 6 -8q4 0 117 186q205 367 323 465q62 47 107 47q25 0 43 -12q27 -24 27 -66q-3 -39 -19 -86q-30 -80 -55 -80q-13 0 -29 11q-15 12 -18 12q-14 0 -70 -68 q-226 -277 -383 -598q-8 -20 -8 -28q0 -9 4 -21q31 -98 92 -156q175 -172 377 -172q46 0 96 9l13 2q18 0 18 -9q0 -10 -25 -16q-53 -16 -106 -16q-129 0 -266 67q-95 43 -152 101l-16 18q-59 56 -82 109q-15 -19 -19 -29q-2 -2 -2 -6q-214 -438 -319 -893q-27 -111 -27 -228 z" />
<glyph unicode="P" horiz-adv-x="2078" d="M66 -571q0 76 14 122q81 345 266 768q77 177 162 404q305 839 678 1524q8 13 8 26q0 11 -4 23q-2 8 -2 24v19q0 40 80 123q62 65 94 65q7 0 35 -4q17 -5 41 -22q18 -18 18 -35q0 -36 -31 -96q-11 -19 -108 -205q-507 -961 -524 -1063q16 13 22 28l4 7q410 695 903 1136 q113 98 226 144q70 28 133 28q115 0 155 -114q21 -61 21 -160q0 -210 -68 -473q-71 -261 -196 -527q-266 -561 -570 -765q-144 -99 -280 -99q-149 0 -262 82q-105 74 -105 213q0 137 37 137q16 -3 16 -26l-2 -62q0 -195 156 -256q61 -24 131 -24q167 0 320 135 q268 238 489 715q120 261 193 524q63 231 63 403q0 127 -29 183q-20 39 -69 39q-126 0 -303 -148q-250 -220 -484 -520q-451 -580 -737 -1245q-128 -296 -190 -523q-97 -313 -144 -491q-2 -15 -20 -47q-37 -60 -80 -60q-57 0 -57 93z" />
<glyph unicode="Q" horiz-adv-x="2617" d="M57 -498q0 25 17 56q25 41 65 41q33 0 47 -39q6 -19 21 -19h12q136 23 258 31q29 0 29 16l-2 15q-25 119 -25 239q0 228 72 504q98 375 266 703q32 86 51 223q58 444 250 790q193 345 488 502q212 113 434 113q412 0 547 -441q45 -148 45 -329q0 -339 -148 -760 q-176 -491 -522 -1006q-203 -295 -369 -483l-53 -61q-15 -15 -18 -27q37 -11 77 -14l33 -2q269 -35 498 -138q31 -19 31 -47q0 -26 -23 -26q-14 0 -37 10q-158 72 -311 98q-185 33 -334 33q-14 0 -39 -19q-217 -208 -422 -264q-54 -14 -98 -14q-164 0 -279 139 q-44 59 -61 92v4q-12 21 -35 21h-14q-240 -35 -348 -35q-52 0 -78 29q-25 28 -25 65zM590 -160q0 -100 16 -209q2 -11 4.5 -22t3.5 -16.5t2 -8.5q3 -6 41 -6q33 10 400 10l241 2q86 0 129 43l43 43q450 500 736 1047q221 435 305 831q41 196 41 361q0 189 -55 354 q-92 259 -343 318q-55 14 -120 14q-192 0 -396 -121q-119 -71 -217 -166q-195 -195 -315 -502q-100 -241 -129 -462q19 13 27 28l4 11q141 237 252 366q182 212 301 221q50 0 77 -18q35 -24 35 -66q0 -53 -137 -135q-193 -122 -295 -264q-208 -304 -291 -465 q-18 -44 -18 -143q0 -216 100 -316q12 -12 12 -30q0 -29 -24 -29q-22 0 -49 27q-62 68 -84 135q-23 66 -31 149l-4 -4h-4l-4 4q-2 0 -2 2h-2v-2q-89 -198 -144 -372q-106 -325 -106 -609zM653 -541q70 -186 240 -186q163 0 389 203h2q6 6 6 12l-2 8h-53q-249 0 -582 -37z " />
<glyph unicode="R" horiz-adv-x="2228" d="M82 541q0 11 10 34q11 33 60 33q28 0 73 -28q122 -88 281 -88h14q7 0 12 8q9 18 11 24v2q173 431 395 877q225 455 457 838q10 20 10 26q0 9 -4 17q-2 2 -2 8v8q0 3 10 20q5 6 13.5 17t22.5 29t25 32q44 57 89 107q43 49 61 61q15 12 35 12q35 0 57 -28q14 -14 14 -39 q0 -20 -10 -47q-33 -60 -84 -127q-33 -45 -65 -94q-297 -480 -563 -1033q-7 -7 -7 -18v-10q104 154 326 426q300 362 672 612q244 164 393 170q133 -3 197 -129q36 -71 36 -182q0 -86 -20 -183q-51 -225 -176 -415q-290 -447 -764 -762q-509 -336 -1014 -354q-19 0 -26 -7 t-7 -14q0 -13 17 -27q152 -110 346 -225q451 -273 807 -346q104 -22 180 -22q22 0 76 4h10q43 0 49 -25q0 -41 -162 -41q-92 0 -200 21q-205 38 -615 231q-231 105 -444 248q-100 63 -113 63q-5 -5 -12 -22q-141 -325 -252 -666q0 -2 -2 -2q-4 -20 -4 -29q0 -14 14 -28 q2 -2 2 -6q0 -11 -20 -31q-21 -21 -43 -21h-6q-35 18 -35 74t112 391q63 196 127 371q9 15 9 29q0 11 -27 26q-35 19 -55 35q-118 76 -170 90q-76 21 -115 78q-6 12 -6 27zM686 479h25l51 2q398 37 780 281q488 303 797 770q69 109 112 209q80 189 80 346q0 92 -39 151 q-45 60 -118 60q-23 0 -56 -2q-47 -3 -186 -86q-334 -209 -680 -590q-518 -568 -672 -913q-53 -113 -84 -191l-4 -6q-6 -9 -6 -21v-10z" />
<glyph unicode="S" horiz-adv-x="2113" d="M82 -414q0 149 188 367q195 226 555 483q312 219 568 350q14 8 14 15q0 5 -8 10q-136 89 -467 203q-332 118 -449 190q-180 113 -180 262q0 104 98 217q212 240 650 484q311 171 626 235q106 23 189 23q60 0 116 -12q146 -41 146 -183q0 -92 -55 -190 q-118 -201 -308 -391q-34 -27 -45 -60q-7 -17 -28 -26q-26 -11 -43 -11h-19q-19 4 -33 21q-16 19 -16 37q0 37 45 76q51 41 105 98q148 154 215 282q47 89 47 144q0 82 -125 82q-101 0 -246 -43h-4q-608 -168 -1040 -563q-66 -60 -113 -134q-41 -68 -41 -116q0 -10 6 -45 q13 -68 174 -158q138 -75 391 -166q330 -119 488 -217q17 -10 28 -10q7 0 19 4q195 76 336 76q52 0 104 -9q95 -12 119 -108h-8q-12 0 -17 8q0 11 -20 31q-40 37 -152 37l-65 -5q-114 -6 -254 -69q-8 -3 -8 -10q0 -9 14 -17q98 -80 150 -172q32 -69 32 -153 q0 -170 -168 -402q-220 -295 -585 -512q-304 -184 -578 -196h-29q-319 0 -319 243zM158 -410q0 -47 22 -96q20 -48 92 -69q74 -19 148 -19q106 0 194 27q273 83 510 258q243 180 408 399q154 204 154 361q0 45 -27 131q-27 77 -152 159q-10 7 -28 11q-16 0 -33 -7 q-324 -155 -682 -423q-413 -311 -567 -578q-39 -71 -39 -154z" />
<glyph unicode="T" horiz-adv-x="1466" d="M-287 2318q0 40 31 49q53 17 94 25q410 78 826 78q100 0 147 -2t139 -2q67 0 207 4q70 2 336 2q26 0 35 18q33 39 61 39q31 0 53 -28q11 -18 11 -37q9 -6 39 -6q864 -27 1378 -99l63 -2l23 2q61 0 61 -49q0 -45 -57 -45q-101 22 -158 31q-254 54 -1249 57q-92 0 -121 2 q-25 0 -37 -24q-121 -229 -280 -516q-424 -767 -793 -1557q-355 -761 -461 -1124q-9 -33 -32 -33h-4q-15 9 -15 43q77 278 185 539q651 1608 1239 2641l18 37q-27 9 -63 9q-717 0 -1420 -105q-111 -20 -184 -20q-72 0 -72 73z" />
<glyph unicode="U" horiz-adv-x="2224" d="M78 18q0 99 24 240q47 282 187 623q285 732 672 1271q65 91 141 177q59 65 104 65q73 0 92 -22q11 -22 11 -45q-3 -27 -19 -46l-18 -16q-28 -32 -62 -49q-17 -7 -26 -27q-146 -176 -254 -348q-344 -546 -543 -1046q-111 -289 -154 -467q-47 -178 -47 -330q0 -88 21 -162 q27 -92 117 -92q63 0 133 43q389 220 1001 997q624 794 985 1416l80 131l17 22q16 23 53 23q8 0 24 -4q45 -25 45 -56q0 -23 -36 -82q-3 -3 -3 -6q-525 -965 -579 -1071q-394 -755 -598 -1403q-107 -343 -133 -540l-2 -25q0 -15 4 -31q2 -8 2 -18q-3 -14 -19 -14 q-12 0 -26 14t-17 47q3 108 33 278q22 138 60 275q180 630 397 1071q92 187 250 487l141 273l16 37q-462 -648 -720 -973q-394 -499 -703 -762q-275 -233 -442 -233q-23 0 -70 12q-43 11 -82 78q-57 92 -57 288z" />
<glyph unicode="V" horiz-adv-x="1742" d="M4 -401q0 181 41 409q125 679 311 1266l9 24q241 767 399 1072q81 161 143 161q34 0 68 -37q41 -50 41 -100l-2 -12q-4 -18 -43 -41q-20 -12 -21 -14q-34 -60 -100 -222v-4q-162 -408 -238 -612q-259 -692 -385 -1249q-3 -11 -61 -256q-60 -268 -60 -428q0 -94 29 -150 q12 -24 31 -24q6 0 22 8q107 58 328 354q169 228 281 403q346 519 567 840q383 557 793 1047q307 364 526 549q101 88 117 88q2 0 16 -7q12 -3 12 -18q0 -6 -10 -16q-138 -111 -332 -332q-684 -782 -1269 -1690l-334 -522q-404 -627 -627 -793q-53 -38 -100 -38 q-10 0 -52 10q-61 15 -88 172q-12 61 -12 162z" />
<glyph unicode="W" horiz-adv-x="3284" d="M0 -190q0 96 16 202q54 316 152 570q208 547 498 1028q278 458 530 747q108 123 156 123q46 0 73 -41q11 -17 11 -41q0 -17 -23 -71q-37 -72 -67 -72q-7 0 -11 2t-12 2q-11 0 -29 -21q-61 -66 -141 -186l-53 -74q-295 -401 -525 -845q-9 -21 -18 -39q-87 -166 -192 -387 q-204 -436 -244 -824v-41q0 -79 10 -102q24 -78 80 -78q30 0 65 14q168 57 426 342q265 300 564 715q98 138 237 367q240 391 330 522q21 27 51 27q10 0 14 -2q23 -11 23 -48q0 -29 -18 -79l-2 -9q-152 -408 -277 -815q-158 -501 -229 -942q-21 -144 -21 -237 q0 -163 62 -252q63 -78 163 -78q118 0 269 86q299 176 553 491q219 268 393 605q218 420 344 999q41 205 41 373q0 291 -98 491q-102 206 -215 310q-36 28 -58 28l-20 -2q-17 0 -17 27v12q3 8 17 14q18 7 31 7q53 0 106 -56q108 -111 190 -250q142 -248 142 -569 q0 -74 -15 -192q-77 -608 -350 -1151q-204 -409 -506 -762q-214 -251 -505 -430q-169 -111 -338 -111q-20 0 -60 4q-104 17 -174 135q-67 116 -67 324q0 357 170 936q134 452 262 721l51 129q0 2 -2 2t-2 2q-13 -25 -49 -82q-432 -728 -938 -1329q-131 -155 -314 -291 q-158 -119 -256 -119q-76 0 -121 60q-63 78 -63 211z" />
<glyph unicode="X" horiz-adv-x="1931" d="M20 -694q0 14 7 32q88 198 233 449q272 481 578 909q29 39 32 92q19 304 101 740q80 424 176 733q44 135 76 180q13 23 39 23h4q51 -12 51 -45q-6 -37 -23 -103q-3 -12 -47 -198l-90 -371q-110 -460 -151 -817q16 5 30 33q150 204 307 383q50 56 97 112q454 549 911 905 q124 97 252 166q103 56 154 56q29 0 53 -15q49 -27 49 -90q0 -45 -41 -80q-12 -10 -29 -10q-4 0 -6 2q-1 1 -4.5 3.5t-5.5 4.5q-9 6 -18 6q-11 0 -23 -6q-315 -182 -668 -504q-374 -343 -688 -716q-390 -464 -393 -533q-2 -39 -2 -123q0 -355 115 -663q132 -363 415 -488 q138 -63 314 -63q119 0 248 24l129 31q18 0 18 -16q0 -19 -27 -25q-198 -69 -381 -69q-52 0 -167 14q-101 15 -218 84q-278 166 -419 500q-133 310 -142 657v14q0 15 -4 21l-8 -4q-8 -5 -8 -11q-303 -407 -565 -841q-49 -81 -88 -160l-109 -215q-14 -35 -43 -35 q-21 0 -21 27z" />
<glyph unicode="Y" horiz-adv-x="1609" d="M49 721l2 43q30 336 279 840q111 227 286 491q158 237 283 365q88 94 143 94q18 0 41 -10q37 -18 37 -58q0 -13 -6 -28q-27 -58 -41 -58q-10 0 -16 35q-84 -72 -226 -276q-229 -334 -364 -596q-181 -345 -258 -615q-39 -127 -39 -219q0 -45 4 -65q9 -70 68 -70q6 0 30 4 q146 35 375 233q190 163 340 330q236 253 739 869l29 34q24 31 127 172q159 234 207 234q31 0 49 -21q10 -10 10 -22q0 -2 -4 -14q-3 -5 -19 -32.5t-24 -43.5q-8 -15 -24 -42.5t-21 -35.5q-115 -186 -186 -309l-92 -166q-341 -608 -754 -1460q-226 -474 -410 -922 q-145 -359 -145 -449q0 -28 2 -34q4 -12 4 -21q0 -20 -29 -20q-20 0 -36 16q-23 23 -23 86q0 92 109 385q142 387 387 932q326 735 733 1452l2 4q5 8 14 31q-11 -4 -198 -228l-246 -290q-460 -537 -780 -717q-109 -62 -191 -62q-55 0 -94 33q-74 62 -74 201z" />
<glyph unicode="Z" horiz-adv-x="2461" d="M41 -866q0 63 125 215q295 365 475 377q56 6 74 24q944 974 1661 1804q176 202 309 406q139 219 139 340q0 104 -131 104q-112 0 -274 -61q-162 -62 -367 -156l-209 -92q-195 -88 -244 -88q-44 0 -83 25q-50 27 -50 71q0 21 13 47q21 41 59 41q13 0 33 -8q13 -8 33 -8 q27 0 57 12l8 2q106 37 256 107q34 15 442 176q195 74 332 74q79 0 158 -31q62 -29 88 -82q29 -60 29 -127q0 -203 -305 -612q-240 -318 -531 -627q-181 -196 -227 -242l-312 -329q-385 -411 -686 -717q-25 -25 -30 -35q277 -38 647 -166l149 -49q709 -228 1393 -477 q136 -48 297 -92q35 -8 35 -29q0 -20 -23 -23h-10l-16 2q-180 48 -346 105q-64 25 -642 217q-1173 385 -1572 385q-49 0 -76 -41q-300 -300 -471 -438q-101 -78 -142 -78q-24 0 -38 14q-27 21 -27 60zM190 -770q115 86 269 250l121 123q-46 -19 -117 -84q-63 -57 -148 -146 q-72 -78 -125 -143z" />
<glyph unicode="[" horiz-adv-x="1617" d="M115 -317q0 37 12 77q16 63 45 119q350 658 571 1178q133 318 236 542q107 235 227 443q4 6 8 18q25 45 58 84q28 37 78 47q171 23 252 23q12 0 36 -4q14 -3 17 -19q2 -10 2 -22q0 -47 -33 -58l-184 -32q-66 -9 -94 -70q-92 -162 -248 -483q-187 -372 -330 -690 q-225 -509 -463 -969q-34 -52 -65 -146q-9 -27 -9 -43q0 -38 62 -38q210 -5 262 -5v-6h170q64 3 113 15l6 2q37 0 37 -37q0 -28 -29 -37q-83 -25 -442 -31l-82 -2q-190 0 -205 72q-8 41 -8 72z" />
<glyph unicode="\" horiz-adv-x="1179" d="M0 1866q0 6 4 30q9 22 14 29q9 12 25 12q22 0 41 -8q18 -6 22 -24q4 -23 11 -35q12 -34 12 -45q0 -5 -4 -21v-4q0 -10 4 -14q1 -2 2 -4.5t1.5 -3.5t0.5 -2q413 -981 842 -1751q98 -183 190 -297q15 -21 15 -31q0 -19 -11 -27q-8 -8 -18 -8q-20 0 -25 8q-6 9 -14 17 q-100 114 -229 342q-257 437 -566 1071q-173 345 -278 616l-2 4q-34 81 -37 146z" />
<glyph unicode="]" horiz-adv-x="1681" d="M25 -498q0 36 20 39q271 40 369 62q83 19 127 57q50 43 82 115l20 41q198 389 582 1417q122 317 254 600q45 97 73 201v4q4 16 4 22q0 33 -114 33q-22 0 -58 -4q-9 0 -27 -1t-26 -1h-139q-62 3 -62 61q0 41 33 47q29 1 123 11q120 12 178 12q178 0 217 -57q25 -36 25 -74 q0 -68 -53 -186q-83 -170 -97 -199q-191 -390 -497 -1147q-160 -417 -338 -801q-104 -217 -334 -246l-31 -6l-104 -16q-148 -23 -193 -23q-34 5 -34 39z" />
<glyph unicode="^" horiz-adv-x="854" d="M389 1411q0 11 21 29l4 2q142 117 358 379q28 41 59 41q13 0 21 -4q29 -16 29 -33v-25q0 -21 -7 -49q-35 -165 -57 -358q0 -44 -31 -47q-14 3 -18 10q-3 4 -8 20v21q0 130 20 264q0 4 2 8v14v21q-19 -8 -37 -33l-10 -12q-107 -127 -182 -199q-85 -82 -123 -82 q-21 0 -37 19q-4 8 -4 14z" />
<glyph unicode="_" horiz-adv-x="1531" d="M-397 43q0 33 32 39q214 29 717 29q396 0 535 -19q26 -4 74 -8q131 0 131 -53q0 -33 -29 -33h-4q-218 27 -682 27h-281q-236 0 -450 -25q-43 0 -43 43z" />
<glyph unicode="`" horiz-adv-x="559" d="M127 1720q0 10 14 27q15 18 25 18q55 -13 264 -186q23 -20 23 -35q0 -19 -25 -22q-17 4 -25 12q-268 158 -272 176q-4 4 -4 10z" />
<glyph unicode="a" horiz-adv-x="972" d="M-205 408q0 16 10 36q38 129 158 234q52 43 117 43q16 0 41 -2q35 -3 69 -51l5 -4q6 0 14 8q11 8 24 8q21 0 31 -10q12 -12 12 -25q0 -17 -28 -72q-72 -132 -72 -196q0 -51 51 -51q55 0 148 34q144 54 295 136q139 73 196 112q4 4 13 4q16 0 16 -22q0 -6 -6 -12 q-92 -75 -217 -146q-135 -78 -275 -131q-104 -43 -184 -43q-25 0 -45 2q-33 3 -57 49q-13 33 -13 64q0 69 39 143q-36 -25 -137 -84q-122 -70 -152 -70q-16 0 -36 13q-17 14 -17 33zM-78 494q0 -9 4 -9q8 0 29 15q119 71 174 112q-21 27 -47 27q-9 0 -21 -4 q-83 -36 -139 -131v-10z" />
<glyph unicode="b" horiz-adv-x="1009" d="M-344 166q0 23 113 297q105 274 260 547q198 342 420 524q101 78 161 78q46 0 70 -41q20 -29 20 -64q0 -47 -53 -127q-263 -413 -635 -741q-74 -62 -112 -143q-19 -48 -41 -121q46 62 141 147q98 92 195 121l28 4q39 0 72 -26q30 -24 43 -50q10 -27 10 -43q3 -8 6 -8h4h7 q213 79 454 94l33 -2q8 0 8 -12q0 -2 -4 -10q0 -4 -51 -10q-212 -18 -428 -111q-31 -16 -43 -55q-70 -246 -201 -402q-49 -60 -108 -114q-126 -117 -209 -117q-37 0 -74 29q-25 25 -25 65q0 17 13 74q11 47 92 151q112 135 201 211q81 66 215 150q14 5 20 18l2 21 q0 82 -43 82l-18 -4q-133 -63 -246 -189q-120 -130 -203 -242q-20 -26 -47 -26q-24 0 -39 18q-8 11 -8 27zM-207 -113q0 -32 25 -32q30 0 92 53q98 85 180 188q69 87 129 219l2 7h2l6 20l13 37v4q0 4 -4 4l-35 -22q-185 -120 -330 -312q-80 -112 -80 -166zM16 733l25 21 q171 174 309 340q146 180 252 381l4 8q14 20 21 47l-9 6q-73 -41 -133 -111q-294 -309 -469 -692z" />
<glyph unicode="c" horiz-adv-x="765" d="M-193 297q0 121 62 248q60 123 147 219q81 84 142 84q16 0 49 -8q39 -9 61 -76q6 -21 6 -41q0 -38 -28 -74q-8 -8 -23 -8q-28 0 -39 33q-3 13 -24 53q-22 -3 -39 -20q-84 -72 -141 -183q-70 -131 -70 -231q0 -82 51 -82q30 0 92 20q150 50 328 162q184 117 293 213 q9 6 20 6q8 -3 11 -8q0 -7 -13 -20q-116 -119 -293 -242q-180 -125 -338 -178q-62 -19 -106 -19q-35 0 -90 19q-58 24 -58 133z" />
<glyph unicode="d" horiz-adv-x="770" d="M-229 334q0 106 139 301q73 103 174 172q51 33 90 33q57 0 117 -60l61 86q96 124 193 293q130 240 323 463q22 31 52 31q22 0 41 -15q16 -16 16 -28q0 -22 -39 -58q-13 -10 -27 -28q-484 -622 -821 -1497q-26 -67 -45 -146q-18 -37 -18 -90q0 -15 4 -43v-4q0 -16 -29 -16 q-41 0 -41 61q0 39 19 123q81 287 208 547q76 158 76 182q0 10 -4 18q-32 -37 -82 -100q-64 -81 -139 -166q-129 -141 -197 -141q-31 0 -51 20q-20 27 -20 62zM-119 356q135 105 228 236q31 40 90 110l-25 3q-11 0 -41 -23q-162 -125 -244 -293z" />
<glyph unicode="e" horiz-adv-x="866" d="M-160 403q0 31 17 97q84 196 288 284q49 15 93 15q84 0 84 -90q0 -74 -86 -148q-172 -117 -238 -117q-28 0 -45 17q-8 -33 -8 -66q0 -24 6 -39q30 -65 106 -65q150 0 381 108q232 108 365 209q8 4 10 4q13 0 16 -18q0 -6 -6 -12q-129 -123 -358 -242q-231 -120 -432 -141 q-123 9 -164 84q-26 54 -29 120zM0 528q67 24 131 76q80 61 86 94q-122 -43 -217 -170z" />
<glyph unicode="f" horiz-adv-x="929" d="M-1475 -997q9 155 76 346q159 462 529 1057q346 557 647 849q178 172 262 172q30 0 55 -14q45 -25 45 -70q0 -39 -30 -77q-23 -33 -52 -33q-26 0 -47 49l-26 -18q-70 -46 -238 -226q-99 -115 -274 -354q-192 -262 -263 -371q29 10 43 21q351 190 732 266l73 10 q79 8 142 8q34 0 34 -6q3 -9 3 -14q-3 -6 -5 -6q-1 -1 -4 -2t-4 -2q-8 -4 -12 -4h-23q-199 0 -454 -101q-257 -101 -430 -207q-98 -64 -185 -139q-34 -24 -34 -57q0 -22 8 -49q16 -69 16 -131q0 -177 -96 -392q-148 -365 -313 -569q-36 -47 -99 -47q-73 0 -76 111z M-1391 -979q0 -12 5 -47q30 17 38 35q139 171 283 508q113 241 113 387q0 53 -19 102l-12 -14l-16 -29q-261 -501 -344 -723q-48 -130 -48 -219z" />
<glyph unicode="g" horiz-adv-x="1193" d="M-1532 -956q0 44 23 141q21 89 69 168q155 259 443 514q290 257 624 461q25 16 80 137q43 87 43 104q0 4 -4 4l-240 -108l-135 -64q-113 -49 -153 -49q-36 0 -56 23q-20 20 -20 55q0 27 8 51q40 101 158 193q118 95 237 121q27 8 60 8q75 0 123 -66q21 -27 30 -67l43 4 q26 0 49 -23q21 -25 21 -53q0 -25 -59 -143l-35 -74q236 110 344 154q139 55 311 79h4q17 0 17 -18q0 -11 -15 -14q-145 -33 -352 -119q-186 -78 -328 -158q-13 -5 -30 -22q-17 -21 -105 -199q-240 -485 -440 -784q-289 -436 -524 -457h-13q-128 0 -159 90q-19 55 -19 111z M-1466 -954q0 -146 108 -146h8q221 41 453 410q233 392 410 760l88 176q-219 -127 -504 -373q-293 -252 -477 -532q-46 -73 -70 -181q-16 -66 -16 -114zM-741 471q39 10 112 35q93 33 158 61q81 37 113 56q-15 30 -54 30q-18 0 -39 -6q-176 -38 -290 -176z" />
<glyph unicode="h" horiz-adv-x="1288" d="M-389 236q0 49 41 118q611 1105 936 1465q92 86 176 86q90 0 90 -107q0 -96 -86 -266q-239 -474 -715 -750q-36 -22 -55 -53l-102 -170l6 -6q91 76 114 92q104 82 160 82q94 0 100 -119q0 -72 -8 -135q-10 -78 -10 -129q0 -42 10 -80q18 -55 103 -55q161 0 395 153 q210 137 328 240q13 10 22 10q14 -3 14 -18q0 -14 -8 -25l-12 -10q-427 -384 -717 -430l-43 -2q-50 0 -96 14q-49 15 -74 78q-24 61 -24 123q0 43 8 92q18 108 18 156q0 29 -6 41q-47 -13 -82 -45q-167 -113 -287 -287q-79 -119 -135 -119q-17 0 -37 10q-24 18 -24 46z M123 952q0 -6 4 -6q5 0 14 6q231 141 406 377q158 202 231 426q10 38 10 47q0 17 -14 17q-16 0 -59 -37q-158 -137 -350 -430q-141 -211 -232 -377q-10 -13 -10 -23z" />
<glyph unicode="i" horiz-adv-x="759" d="M-258 293q6 105 70 221q63 118 131 188q40 37 69 37q45 0 45 -43q0 -19 -53 -102l-119 -188q-32 -51 -32 -97q0 -51 49 -51q83 0 301 107q177 82 274 145q11 7 32.5 21t31.5 20l94 61q14 0 20 -6q0 -13 -8 -18q-122 -113 -350 -236q-223 -120 -391 -162q-16 -4 -45 -4 q-116 0 -119 107zM119 979q0 45 37 63q34 15 53 15q22 0 63 -13q37 -9 37 -34q0 -44 -106 -82l-29 -4q-55 0 -55 55z" />
<glyph unicode="j" horiz-adv-x="722" d="M-2388 -905q0 96 66 231q175 352 485 598q171 134 360 242q28 18 43 49q79 136 213 348q57 91 86 129q24 27 48 27q33 0 49 -31q10 -15 10 -33q0 -17 -8 -30l-33 -56q-53 -93 -70 -104q-9 -6 -12 -16q-25 -44 -55 -87q-25 -35 -58 -92l-2 -18q414 215 822 360l6 2l8 -4 q4 -4 4 -10q0 -4 -2 -8l-6 -6q-441 -192 -873 -428q-34 -21 -49 -58q-30 -53 -125 -225q-175 -321 -307 -522q-268 -400 -477 -400q-57 0 -92 41q-31 42 -31 101zM-2304 -936q0 -31 25 -31h4q116 28 250 193q117 144 202 287q98 168 164 292l103 191l20 41l-27 -12 q-297 -183 -514 -474q-158 -227 -211 -399q-16 -59 -16 -88zM-985 1010q0 28 16 57q22 35 72 35q59 0 68 -37q6 -27 6 -39q0 -34 -17 -59q-20 -39 -73 -39q-55 9 -64 39q-8 24 -8 43z" />
<glyph unicode="k" horiz-adv-x="1144" d="M-582 -213q0 85 168 512q190 491 465 1008q208 393 350 567q37 29 68 29q43 0 66 -33q12 -18 12 -39q0 -17 -4 -25q-34 -72 -80 -106q-16 -12 -25 -21q-44 -38 -223 -344q-306 -515 -412 -776q44 48 185 176q308 273 483 273q47 0 70 -23q21 -21 24 -49q0 -25 -22 -47 q-15 -12 -31 -12q-20 0 -39 16q-22 16 -33 16l-10 -2q-163 -52 -477 -317q-217 -184 -217 -225q0 -17 28 -17q221 28 547 109q334 83 557 153l13 2q20 0 26 -12q0 -28 -28 -37q-507 -174 -1041 -280l-14 -4q-71 -9 -103 -25q-47 -23 -137 -272l-63 -154q-8 -23 -10 -37 q-3 -18 -13 -35q-10 -16 -28 -16h-5q-15 0 -32 10q-15 12 -15 37z" />
<glyph unicode="l" horiz-adv-x="901" d="M-242 74q0 228 138 575q136 346 319 666q180 311 342 497q102 117 178 117h29q26 0 57 -22q41 -35 41 -99q0 -90 -51 -209q-94 -212 -360 -569q-190 -256 -402 -414q-21 -14 -33 -26q-39 -39 -98 -240q-31 -97 -47 -266l-2 -29q0 -100 78 -106q88 3 231 104 q171 120 524 457q66 66 80 78h2q24 24 33 24q1 0 3 -1t3 -1l6 -6q7 -4 7 -10l-2 -6l-25 -27q-74 -87 -262 -272q-434 -428 -617 -428h-4q-82 12 -125 76t-43 137zM53 735q0 -4 6 -4q3 0 11 4q111 81 288 307q189 243 316 463q110 201 110 281q0 45 -26 45q-43 0 -133 -125 q-301 -410 -537 -889l-35 -78v-4z" />
<glyph unicode="m" horiz-adv-x="1609" d="M-311 154q0 61 108 325l60 158q27 62 82 117q17 20 43 20q47 -3 47 -47q0 -22 -76 -184q31 11 47 39q258 279 434 344q20 4 29 4q27 0 51 -15q35 -24 35 -63v-4q-17 -104 -80 -217q-27 -50 -88 -209q-23 -59 -23 -88q0 -15 9 -21q34 6 61 33l162 172q26 29 53 49 q20 17 45 17q16 0 41 -11q29 -13 35 -104q3 -50 20 -111q15 -52 66 -86q38 -18 82 -18t129 29q83 30 166 98q176 143 256 229l2 2l2 -2h4l2 -2q0 -1 1 -3.5t1 -4.5q-212 -270 -453 -377q-62 -26 -124 -26q-55 0 -105 20q-121 65 -121 289q-43 -26 -117 -113 q-62 -70 -92 -100q-81 -78 -133 -78q-9 0 -49 8q-41 12 -41 92q0 85 98 314q60 145 60 155q8 13 8 31q0 6 -2 8q-17 -3 -45 -26l-8 -6q-223 -171 -381 -398q-30 -41 -162 -243q-39 -54 -88 -54q-26 0 -37 17q-14 14 -14 41z" />
<glyph unicode="n" horiz-adv-x="1101" d="M-319 258q0 35 18 82q90 215 229 397q37 46 68 49q27 0 43 -22q10 -17 10 -29l-2 -12q-43 -102 -98 -186l-49 -86q-14 -19 -17 -56q65 58 135 125l136 125q103 92 135 92q20 0 47 -18q26 -20 29 -66l-5 -116q0 -42 7 -117q9 -107 118 -107q39 0 111 29q111 48 305 215 q59 53 70 53q12 0 12 -12q0 -2 -4 -10q-199 -230 -391 -320q-64 -30 -123 -30q-51 0 -92 20q-73 42 -88 119q-11 56 -11 121v32l5 84l2 13q-72 -49 -224 -209q-77 -80 -166 -166q-32 -32 -88 -51q-19 -8 -45 -8q-25 0 -49 12q-28 22 -28 53z" />
<glyph unicode="o" horiz-adv-x="804" d="M-262 279q0 105 88 260q120 211 237 211q95 0 95 -105q0 -58 -25 -110q74 -35 162 -35q37 0 74 6q171 36 299 100q8 4 12 4q18 0 18 -16q0 -2 -4 -14q-2 -6 -143 -66q-155 -63 -295 -63q-88 0 -150 26q-28 -63 -63 -119q-47 -79 -98 -133q-57 -60 -113 -63q-94 3 -94 117 zM-176 281q0 -29 18 -29q15 0 33 12q108 83 168 242q-32 22 -49 84q-31 -22 -125 -191q-45 -83 -45 -118zM55 637q0 -32 21 -53q10 42 10 67q-3 15 -14 15q-17 0 -17 -29z" />
<glyph unicode="p" horiz-adv-x="1179" d="M-1450 -909q0 22 10 32q336 846 676 1422q133 222 213 299q39 39 78 39q20 0 33 -13q12 -15 12 -28q0 -19 -27 -54q-217 -307 -381 -624q-36 -59 -36 -68q0 -6 -2 -8l8 -6l51 70q108 144 199 251q175 211 340 318q97 63 165 63q80 0 80 -98q0 -92 -69 -192q93 33 209 63 q113 27 313 55q28 4 37 4q28 0 28 -12q0 -7 -12 -16q-10 -6 -29 -10q-40 -3 -149 -29q-108 -26 -240 -68q-139 -45 -192 -73q-84 -131 -174 -234q-79 -95 -221 -186q-40 -21 -70 -21q-22 0 -41 13q-18 12 -18 40q0 24 14 56q54 105 133 184q120 126 258 189q50 38 94 135 q33 78 33 92t-18 14l-19 -2q-121 -38 -258 -190q-215 -215 -424 -506q-151 -206 -219 -332q-85 -153 -152 -301l-75 -158q-8 -19 -15 -43q-9 -47 -51 -106q-6 -6 -33 -6h-16q-8 0 -25 10q-15 9 -18 35zM-532 94q0 -4 4 -4h4q2 0 14 4q94 79 199 211q10 13 10 19l-2 4 q-6 0 -21 -9q-133 -95 -202 -204q-1 -2 -2 -6t-2 -5q-2 -4 -2 -10z" />
<glyph unicode="q" horiz-adv-x="1175" d="M-422 -737q0 222 137 487q136 265 291 506q157 243 189 328q-63 -37 -152 -97q-250 -168 -295 -168q-34 0 -53 29q-14 20 -14 49q0 28 16 68q52 110 149 207q95 95 213 135q34 12 64 12q90 0 131 -117l113 89l18 4q7 0 25 -7q32 -13 32 -38q0 -28 -133 -220 q-36 -53 -80 -122l-127 -195q-315 -450 -413 -805q-8 -24 -8 -51q0 -43 14 -43q47 0 158 141q206 257 534 606q322 340 563 541q15 12 27 12q16 0 16 -18q0 -11 -14 -25q-276 -242 -559 -563q-299 -338 -496 -602q-150 -206 -272 -221q-74 0 -74 78zM-176 467q30 7 86 39 q136 71 248 151q-7 33 -25 33q-7 0 -35 -8q-163 -61 -266 -201q-6 -6 -6 -8q0 -4 -2 -6z" />
<glyph unicode="r" horiz-adv-x="1101" d="M-98 6q0 123 135 344q67 107 67 137q0 23 -26 39q-36 16 -70 23q-45 9 -78 26q-20 17 -20 50q0 69 67 145q21 21 52 21q50 0 77 -41q7 -14 7 -25q0 -24 -25 -55q148 -47 148 -146q0 -4 -5 -39q-8 -31 -69 -118q-62 -83 -115 -183t-53 -188q0 -84 94 -84q56 0 141 45 q215 134 455 352l188 160q144 114 218 141q10 0 10 -8l-2 -8q-73 -40 -201 -156l-121 -108q-128 -121 -262 -238q-307 -260 -459 -260q-71 0 -106 41q-47 50 -47 133z" />
<glyph unicode="s" horiz-adv-x="1163" d="M-541 -178q0 43 64 137q108 154 282 283q176 130 371 198q-8 17 -123 23q-83 5 -196 29q-100 21 -123 83l-2 29q0 79 90 182t219 183q113 71 190 71q44 0 82 -32q43 -34 43 -68q0 -33 -26 -78q-20 -33 -47 -33q-40 0 -68 54q-11 20 -41 20q-60 0 -178 -90 q-134 -96 -137 -184q3 -36 37 -51q42 -18 114 -21q70 -5 154 -22q75 -15 104 -58q97 35 305 82q266 62 328 62q25 0 25 -15q0 -11 -33 -20q-86 -12 -297 -64q-195 -48 -299 -92q-6 -3 -6 -8l2 -8q8 -21 8 -86q0 -62 -27 -144q-67 -172 -206 -323q-141 -153 -312 -223 q-83 -27 -131 -27q-74 0 -119 45q-47 44 -47 121v45zM-485 -217q0 -109 108 -109q45 0 103 21q169 63 303 225q128 151 182 338q8 24 8 61q0 45 -10 72q-174 -56 -354 -184q-182 -129 -291 -281q-49 -79 -49 -143z" />
<glyph unicode="t" horiz-adv-x="458" d="M-1470 1411q0 46 53 70q67 20 141 20q35 0 51 -2q31 -2 92 -2q228 9 545 12q38 1 312 7q34 3 53 34q14 32 65 111q123 200 174 258q30 33 58 33q23 0 49 -23q6 -6 6 -14q0 -3 -4 -19q-15 -35 -25 -38q-48 -87 -186 -308q-10 -17 -10 -24q0 -6 20 -6q45 2 172 2l322 -2 q934 -15 1095 -29q27 -3 27 -27q0 -29 -20 -55q-5 -8 -13 -8t-14 2q-1 0 -9.5 3.5t-13.5 4.5q-4 1 -18 8q-6 2 -12 2q-293 22 -1102 25q-322 0 -465 -10q-48 -9 -72 -68q-621 -1097 -798 -1642q-9 -24 -9 -50q5 -3 19 -8q9 -3 14 -8q6 -3 6 -8q0 -27 -37 -39q-15 -6 -30 -6 q-17 0 -29 2q-18 3 -35 33q-8 13 -8 36q0 21 6 48q45 177 201 516q140 310 321 657q180 346 267 492q10 20 10 26q0 10 -21 10l-276 -10q-401 -3 -762 -59l-35 -2q-20 0 -30 4q-18 4 -27 16q-7 7 -12 17q-1 1 -2 4t-2 4q0 1 -1 4.5t-1 5.5z" />
<glyph unicode="u" horiz-adv-x="1159" d="M-352 190q0 139 159 394q54 87 84 121q33 36 74 36q22 0 37 -12q25 -19 25 -57q0 -11 -9 -29l-32 -39q-33 -33 -88 -119q-129 -188 -129 -241q0 -35 30 -35q84 0 361 309q87 94 104 109l17 14q43 43 67 43q12 0 21 -6q39 -26 39 -72q0 -22 -35 -125q-64 -155 -64 -219 q0 -30 21 -33q201 15 661 371q15 12 25 12q12 -3 12 -16q0 -20 -233 -201q-309 -245 -494 -245h-12q-79 15 -82 118q0 115 59 275q-26 -28 -98 -111q-97 -116 -209 -223q-117 -110 -211 -119q-100 12 -100 100z" />
<glyph unicode="v" horiz-adv-x="776" d="M-233 205q0 19 6 43q82 362 178 475q10 10 35 10q15 0 28 -8q16 -9 21 -20q8 -11 8 -23q0 -17 -61 -166q-74 -171 -99 -295v-4q0 -6 4 -6h2l9 2l155 137q284 266 506 408q8 4 21 4h12q9 0 14 -8q4 -12 4 -17q0 -16 -8 -24q-165 -113 -301 -240q-27 -24 -57.5 -52.5 t-66.5 -62.5t-56 -53l-162 -151l-18 -13q-26 -26 -62 -26q-112 3 -112 90z" />
<glyph unicode="w" horiz-adv-x="1378" d="M-246 254q0 111 60 240t118 204q65 80 105 80q14 0 26 -2q17 -3 29 -18q10 -17 10 -39q0 -61 -53 -82q-24 -9 -57 -45q-55 -64 -98 -168q-31 -70 -31 -133q135 47 356 293q20 15 27 22q33 39 61 39q29 0 45 -31q4 -12 4 -18q0 -17 -12 -41q-33 -50 -74 -166 q-43 -120 -57 -229q3 -43 49 -43q19 0 43 6q152 57 244 174q92 116 127 264l-4 6q-2 3 -13 27q-8 19 -8 61q0 15 11 41q16 31 49 31q51 0 51 -76q-3 -18 -6 -33q-2 -10 -2 -26q0 -26 18 -35q85 -31 172 -31q137 0 273 68q29 16 43 16q12 0 12 -10v-4q-6 -6 -12 -10 q-163 -94 -328 -94q-104 0 -199 32q-41 -145 -151 -276q-115 -133 -260 -185q-27 -8 -62 -8q-30 0 -70 15q-49 18 -49 92q0 144 103 342l2 12h-2l-6 -6q-218 -258 -365 -313q-21 -7 -37 -7q-73 0 -82 64z" />
<glyph unicode="x" horiz-adv-x="1558" d="M-684 -92q0 32 22 35q15 2 35 14l322 330l16 22v8l-4 15q-48 151 -51 321q0 27 -18 54q-21 27 -21 57q0 16 14 51q16 29 74 29q16 0 37 -6q22 -6 25 -37q0 -12 1 -32t1 -28q0 -9 -1 -27.5t-1 -27.5q-3 -27 -3 -59q0 -116 31 -252l150 129q130 130 313 254q128 88 258 143 q9 4 27 8q14 0 18 -4t4 -12q0 -14 -20 -23q-184 -96 -336 -221q-203 -172 -377 -346l-8 -10q65 -191 237 -191q343 21 1084 441l86 47q13 8 29 8q6 0 6 -8l-2 -10q-17 -31 -361 -226q-548 -317 -856 -323q-213 3 -293 180v6q-4 4 -6 4q-11 0 -158 -164q-63 -69 -116 -125 q-84 -90 -111 -90q-9 0 -20 8q-27 18 -27 58z" />
<glyph unicode="y" horiz-adv-x="1030" d="M-1700 -1028q0 100 66 229q162 291 422 520q257 222 532 412q41 27 59 62l177 313l-5 2l-43 -35q-323 -305 -413 -305q-28 0 -49 18q-31 28 -31 80q0 109 80 248q68 121 137 184q45 39 76 39q30 0 30 -39q0 -26 -40 -84q-105 -134 -168 -294q-7 -18 -7 -46v-18 q96 39 246 166q64 51 266 240q26 26 48 26q5 0 14 -6q8 -3 14 -18q4 -20 4 -25q-16 -43 -114 -221q-64 -114 -70 -146q311 214 643 336l27 6q12 -3 12 -16t-14 -20l-133 -54q-185 -80 -582 -364q-29 -22 -43 -51q-36 -69 -80 -158q-315 -657 -696 -1020q-51 -48 -127 -76 q-53 -20 -109 -20q-113 0 -125 86q-4 32 -4 49zM-1634 -1024q0 -19 2 -39q3 -34 65 -37q106 3 193 90q215 206 364 465q200 333 301 572q-613 -403 -864 -844q-61 -110 -61 -207z" />
<glyph unicode="z" horiz-adv-x="1224" d="M-1077 -942q0 196 223 489q444 557 836 764q24 12 24 29q2 12 2 31q0 98 -69 98q-51 0 -121 -39l-49 -20l-15 -9q-17 -10 -33 -10t-28 12q-12 15 -12 33q0 26 106 187q7 11 18.5 28t14.5 23q17 22 20 53l-24 -6q-70 -19 -140 -62q-108 -68 -125 -100l-18 -24 q-10 -13 -31 -13q-51 0 -51 56q0 57 113 124q174 104 284 113q45 0 70 -31q19 -22 19 -49q0 -6 -5 -26q-24 -78 -102 -195q70 25 117 25q48 0 78 -21q55 -24 55 -139v-17q309 171 629 244l10 2q12 0 12 -12q0 -9 -14 -12q-70 -19 -281 -109q-356 -152 -368 -203 q-68 -324 -242 -598q-392 -615 -686 -751q-51 -23 -86 -23q-44 0 -86 31q-45 48 -45 127zM-1020 -938q0 -100 78 -100q88 0 244 141q76 70 116 119q435 506 570 997v8q0 11 -6 11l-7 -2q-156 -78 -372 -273q-223 -205 -416 -455q-207 -287 -207 -446z" />
<glyph unicode="{" horiz-adv-x="1073" d="M94 -129q0 148 47 299q67 233 201 459q101 166 109 182q18 41 18 59q0 29 -72 41q-37 6 -90 21q-41 15 -41 63q0 14 8 33q8 32 86 72q279 147 433 428q86 160 120 317q49 179 88 258q65 136 181 185q27 12 59 12q68 0 68 -64q0 -25 -23 -38q-130 -50 -188 -148 q-39 -67 -84 -225q-68 -261 -183 -451q-134 -221 -342 -336h-2q-11 -6 -18 -22q30 -6 78 -27q57 -26 57 -88q0 -22 -6 -49q-9 -39 -61 -117q-47 -75 -82 -141q-135 -231 -199 -408q-57 -155 -57 -292q0 -72 16 -150q44 -185 191 -274q74 -48 159 -48q24 0 45 3q6 1 13.5 2.5 l15 3t10.5 2.5q12 4 25 4q20 0 20 -25q0 -32 -39 -41q-46 -14 -98 -14q-43 0 -90 12q-272 82 -354 355q-19 71 -19 147z" />
<glyph unicode="|" horiz-adv-x="690" d="M315 -250q14 208 60 690l35 373q85 1028 90 1075l4 62q0 67 8 88q6 22 49 22q29 0 39 -10q8 -31 8 -203q0 -41 -2 -49q-20 -400 -63 -756q-33 -278 -49 -440l-31 -276l-47 -525q-10 -98 -10 -178q0 -55 6 -141q0 -11 -4 -19q-4 -6 -15 -10q-4 -2 -14 -2h-8q-14 0 -29 37 q-20 42 -23 94z" />
<glyph unicode="}" horiz-adv-x="1079" d="M-745 -588q0 5 4 17q5 8 43 20q95 21 178 80q326 214 487 477q109 173 164 416q48 186 88 260q35 68 115 92q2 2 6 2q10 5 18 17l-36 32q-43 32 -72 72q-76 91 -76 203q0 100 129 373q101 219 137 329q33 98 33 191q0 109 -70 213q-23 33 -65 49q-16 3 -33 10 q-16 6 -16 31q0 6 4 18q5 14 14 21q8 8 25 8q98 0 160 -86q88 -131 88 -281q0 -107 -43 -237q-47 -144 -134 -303l-71 -148q-58 -132 -58 -180q0 -58 50 -129q46 -62 163 -156q33 -20 33 -49l-2 -10q-15 -46 -63 -55q-15 0 -35 -4l-39 -13q-98 -34 -145 -205 q-18 -66 -35 -145q-51 -199 -150 -358q-199 -320 -555 -531q-83 -51 -186 -69q-20 -5 -25 -5h-4q-4 0 -16 9q-10 7 -10 24z" />
<glyph unicode="~" horiz-adv-x="917" d="M434 692q0 31 58 92q55 64 112 64q13 0 27 -2q20 -3 49 -43l2 -4q56 -90 119 -90q20 0 57 16q37 18 62 41q20 16 51 47q8 8 16 8q25 0 25 -24q0 -25 -72 -88q-79 -70 -147 -70q-89 0 -168 111q-12 18 -27 18q-12 0 -23 -8q-45 -23 -86 -76q-22 -22 -26 -22q-11 0 -19 8 q-10 8 -10 22z" />
<glyph unicode="&#xa1;" horiz-adv-x="1009" d="M209 102q0 27 6 39q323 537 520 910q60 108 80 172q3 12 19 12h6q39 0 39 -41q-24 -106 -164 -360l-33 -64q-23 -53 -98 -197q-255 -501 -344 -501q-31 0 -31 30zM899 1393q0 33 23 92q16 43 51 71q10 8 24 11l9 4q49 -3 49 -58q-3 -34 -39 -83q-51 -66 -82 -66 q-35 0 -35 29z" />
<glyph unicode="&#xa2;" horiz-adv-x="1040" d="M217 469q0 197 219 424q158 161 295 188q21 3 31 29q18 41 45 98q31 68 43 97q17 36 39 36h4q29 -6 29 -45q0 -18 -4 -34l-72 -187q6 -6 26 -16q35 -12 60 -43q26 -37 26 -78q0 -11 -4 -23q-9 -28 -30 -28q-16 0 -19 20q-7 22 -45 47q-27 21 -45 21q-24 0 -39 -43 l-65 -144q-197 -447 -197 -464q0 -19 107 -19q44 0 112 14q68 17 146 72q12 6 22 6q4 0 8 -2q11 -4 15 -10q8 -8 8 -18q0 -15 -14 -29q-84 -72 -183 -96q-83 -21 -205 -21q-38 0 -49 -8q-10 -7 -20 -31q-71 -175 -117 -385q-6 -30 -29 -30h-14q-18 6 -18 30l2 17 q42 201 104 381q10 27 10 36q0 11 -39 25q-143 56 -143 213zM309 453q0 -24 21 -54q20 -33 67 -51l6 -2q15 -6 27 -6h8q8 8 15 27q68 172 110 268q66 149 121 289q12 24 12 43v8q-65 -24 -133 -80q-144 -120 -221 -285q-33 -65 -33 -131v-26z" />
<glyph unicode="&#xa3;" horiz-adv-x="1474" d="M-25 104q0 13 11 31q41 38 82 49q35 15 55 35q95 83 168 184q90 134 149 244q33 44 33 62q-45 0 -113 -9q-12 0 -16 7q-6 3 -6 12q0 27 35 33l98 10q44 0 66 39q214 379 399 497q82 52 168 52q73 0 115 -33q61 -46 61 -131q0 -52 -29 -99q-13 -22 -39 -22q-4 0 -12 4 q-8 3 -14 12t-6 15q0 8 8 32q12 34 12 64q0 55 -67 76q-24 6 -52 6q-38 0 -88 -23q-94 -42 -221 -217q-85 -112 -166 -246l-6 -12q0 -2 1 -5.5t1 -4.5q141 0 141 -4q2 -2 2 -17v-2q-6 -15 -20 -18q-151 -9 -160 -12q-7 -2 -18 -21q-15 -30 -101 -170q-111 -180 -204 -276 q-15 -19 -15 -21q0 -4 9 -4q59 -6 114 -26q25 -9 123 -50q206 -98 344 -98q45 0 80 14q27 15 41 15q12 0 23 -8q12 -9 12 -23q0 -22 -23 -31q-50 -18 -82 -18q-87 0 -155 10q-91 18 -256 80q-103 39 -131 49q-62 18 -119 21q-68 0 -109 -35q-56 -47 -94 -47q-29 0 -29 30z " />
<glyph unicode="&#xa4;" horiz-adv-x="684" d="M-82 416q0 6 4 14q38 49 96 100l5 5l6 6q2 2 2 8v4q-4 36 -4 51q0 40 28 101q23 41 23 63q0 19 -15 37q-9 12 -12 24q-9 18 -10 21q-6 9 -6 16q0 31 35 31q15 0 24 -20q7 -17 39 -66q35 41 60 41q12 0 22 -10q2 -2 8 -2h8q20 4 29 4q17 0 33 -4q12 -8 29 -41l6 -6 q43 43 67 59q37 27 56 27q13 0 16 -13q0 -7 -6 -16l-74 -64q-55 -52 -55 -84q0 -63 -41 -104q-8 -8 -8 -20q0 -3 4 -15q15 -27 30 -57q25 -57 52 -84q8 -5 8 -14q0 -7 -6 -13q-8 -8 -17 -8q-22 0 -84 109q-26 45 -32 45q-4 0 -13 -9q-7 -7 -22 -16q-53 -29 -101 -29 q-16 0 -26 7q-12 4 -17 4q-8 0 -39 -31q-57 -51 -67 -68q-10 -16 -19 -16l-4 2q-12 9 -12 31zM82 594q0 -51 45 -51q33 0 74 30q68 50 71 144l2 12q0 19 -8 39q-9 23 -20 23q-2 0 -17 -5q-9 -6 -12 -6l-4 2q-13 9 -16 9q-12 0 -62 -68t-53 -129z" />
<glyph unicode="&#xa5;" horiz-adv-x="815" d="M139 991q0 145 109 361q10 26 41 65q15 21 35 21h12q12 -4 20 -6q13 -4 15 -11q1 -3 1.5 -6.5t1 -9t1.5 -10.5v-27q-2 -6 -6 -14q-3 -6 -11 -6l-6 2q-7 0 -14 -11l-2 -6q-45 -69 -84 -180q-33 -95 -33 -166q0 -88 51 -88q107 0 363 277q102 106 155 151q29 29 60 29 t31 -35q0 -24 -50 -133q-101 -243 -114 -256q-26 -58 -33 -88q125 0 149 -6q15 -6 15 -21q0 -18 -21 -18l-39 2q-26 0 -73 -6q-8 -2 -29 -2q-29 -6 -35 -21q-7 -20 -24.5 -66t-22.5 -61q5 -8 10 -8h4h9q19 0 77 4l50 2q14 -3 14 -16q0 -26 -21 -29q-151 -12 -163 -18 q-14 -9 -39 -84q-101 -251 -146 -418l-8 -51l-6 -25q-6 -22 -31 -22q-22 0 -22 18q0 88 65 289q48 147 99 278q-33 0 -113 -6l-10 -2q-27 0 -27 21q0 37 113 43l39 4v2q2 0 18 4q9 0 31 74l24 73h-12q-24 0 -51 -6q-40 -4 -66 -4q-18 0 -18 18q0 13 10 23q26 12 94 18l45 4 q21 0 31 19q78 188 178 387q2 2 2 12l-20 -20q-5 -2 -53 -53q-103 -103 -160 -156q-137 -131 -227 -172q-43 -17 -80 -17q-103 0 -103 160z" />
<glyph unicode="&#xa7;" horiz-adv-x="1943" d="M-307 -301q0 219 90 356q38 66 72 66t34 -45q0 -11 -22 -47q-55 -64 -82 -185q-10 -62 -10 -180q18 -209 215 -311q144 -66 291 -66q272 0 481 197q50 47 102 133q78 144 78 297q0 31 -6 92q-6 62 -57 160q-5 9 -19 20q-10 10 -65 19q0 15 10 22q12 6 12 11v4q0 5 -10 22 q-4 5 -9.5 13t-16 21.5t-17.5 23.5q-79 92 -137 141q-72 68 -109 112q-112 121 -112 236q0 91 81 160q80 71 170 71q39 -9 39 -55q0 -20 -28 -26q-77 -15 -144 -91q-17 -23 -24 -53q0 -32 12 -59q21 -47 55 -94q39 -54 138 -140q122 -103 186 -190q12 -12 24 -12q6 0 17 8 q108 86 108 196q0 68 -41 152q-33 68 -145 201q-124 142 -174 237q-59 109 -59 240q0 153 79 272q280 416 754 416q137 0 244 -45q139 -61 145 -215q0 -72 -35 -131q-12 -15 -24 -15q-23 0 -35 9q-12 12 -12 26q6 30 6 60q0 22 -6 49q-12 61 -115 98q-101 39 -207 39 q-153 0 -305 -51q-144 -54 -272 -211q-129 -159 -129 -316q0 -101 106 -264q57 -101 178 -248q40 -47 68 -98q53 -106 53 -196q0 -83 -39 -156q-58 -94 -94 -125q-14 -14 -14 -27q0 -16 12 -37q63 -97 63 -284q0 -273 -196 -463q-101 -101 -221 -152q-163 -75 -346 -75 q-203 0 -365 96q-215 132 -221 387z" />
<glyph unicode="&#xa8;" horiz-adv-x="677" d="M352 1665q15 81 64 115q17 10 30 10q43 0 43 -51q0 -35 -24 -62q-52 -55 -82 -55q-31 0 -31 43zM578 1679q0 20 12 41q10 24 28 39q16 16 44 19q28 0 43 -21q8 -8 8 -24q0 -5 -4 -21q-46 -98 -76 -98q-25 0 -39 20q-16 22 -16 45z" />
<glyph unicode="&#xa9;" horiz-adv-x="1728" d="M344 502v12q18 291 150 537q147 279 385 374q151 62 329 62q233 0 377 -162q113 -128 113 -362q0 -227 -131 -459q-202 -362 -621 -494q-86 -24 -164 -24q-38 0 -114 12q-76 15 -154 76q-81 60 -127 174q-43 110 -43 254zM432 481q9 -173 78 -270q102 -150 291 -150 q193 0 403 148q148 114 230 235q192 275 192 531q0 322 -313 424q-74 24 -146 24h-47q-38 0 -127 -28q-155 -46 -155 -84l4 -19l-2 -10q0 -18 -49 -39q-76 -36 -109 -86q-76 -108 -129 -213q-115 -230 -121 -463zM727 598q0 70 21 158q20 83 86 188q61 97 176 176 q64 43 116 43q96 -3 142 -102q26 -63 26 -115q0 -84 -55 -84q-47 0 -68 84q-21 86 -69 86q-23 0 -62 -22q-121 -74 -188 -252q-37 -98 -37 -205q0 -90 41 -107q23 -10 59 -10q93 0 187 70q15 12 33 18l47 6q-18 -37 -54 -73q-86 -83 -239 -101h-12q-78 0 -119 86 q-31 64 -31 156z" />
<glyph unicode="&#xab;" horiz-adv-x="1206" d="M258 530q0 25 18 52q16 21 48 39q243 129 462 200q41 0 41 -26q0 -25 -24 -31q-43 -6 -422 -195q-37 -18 -37 -32q0 -10 62 -48q103 -61 174 -118l32 -29q47 -44 47 -63q-3 -27 -26 -27q-11 0 -17 6q-82 76 -235 154q-87 51 -94 55q-29 29 -29 63zM629 539q0 32 49 59 q15 8 45 25t43 24q294 170 352 170q8 0 17 -6q10 -8 10 -20q0 -7 -4 -9q-12 -6 -17 -6q-110 -52 -284 -158q-39 -25 -121 -71l-4 -4l-2 -4q7 -15 24 -23q161 -94 267 -147q11 -7 14 -13q4 -8 4 -12q-3 -11 -12 -20l-13 -11q-27 6 -102 41q-132 63 -227 127q-39 23 -39 58z " />
<glyph unicode="&#xad;" horiz-adv-x="1175" d="M446 621q3 32 46 38q53 9 100 9l442 -2q133 0 133 -45q-9 -37 -34 -37q-10 2 -168 2q-180 -3 -269 -6q-78 -5 -94 -5q-124 0 -143 19q-13 10 -13 27z" />
<glyph unicode="&#xae;" horiz-adv-x="987" d="M45 1180q0 128 61 280q74 192 189 285l6 6q24 18 39 18l10 -2q3 0 12 9l5 6q60 48 157 76q79 20 113 20q83 0 164 -66q43 -40 61 -77q53 -115 53 -252q0 -68 -14 -142q-15 -78 -59 -161q-49 -90 -113 -154q-67 -68 -156 -108q-89 -45 -192 -54q-187 3 -272 113 q-64 79 -64 203zM98 1182q0 -37 4 -62q9 -89 88 -149q77 -62 164 -62q144 0 269 88q107 74 176 199q71 130 71 268v39q0 55 -14 115q-23 101 -86 158q-62 53 -129 53q-39 0 -125 -27q-98 -30 -141 -88q-1 -2 -4.5 -7t-5.5 -7t-5 -2q-8 4 -14 4q-5 0 -14 -6l-21 -29 q-137 -146 -190 -340q-23 -90 -23 -145zM209 1061q0 22 57 156q88 207 160 344v2q41 77 70 77q20 0 20 -18q0 -8 -4 -20q-6 -15 -14 -23q-7 -2 -15 -14q-6 -12 -12 -21q-1 -3 -3.5 -7t-4 -7t-2.5 -6q24 17 86 43q43 17 76 20q26 0 34 -2q29 -10 29 -49q0 -5 -1 -14t-1 -13 q-10 -23 -29 -45q-68 -86 -178 -110h-10q-9 -2 -18 -11l4 -6l96 -96q56 -54 129 -98q3 -1 24 -15q9 -9 9 -16q-4 -4 -11 -4q-11 0 -38 12q-81 28 -283 209q-9 -3 -12 -16l-45 -82q-67 -139 -84 -176q-4 -11 -15 -11q-14 0 -14 17zM408 1397q0 -6 24 -6l29 2q34 3 61 12 q56 14 107 84l2 2q18 24 18 37q0 1 -1 4.5t-1 5.5q-11 14 -24 14q-9 0 -29 -4q-20 0 -72 -24q-77 -38 -106 -92q-8 -16 -8 -29v-6z" />
<glyph unicode="&#xb1;" horiz-adv-x="1114" d="M221 258q0 20 49 29q40 10 228 16l114 2q127 0 127 -33q0 -18 -26 -18h-6q-55 8 -123 8q-131 0 -262 -16l-82 -8q-19 0 -19 20zM330 803q0 25 39 39q90 37 268 49q23 0 29 27q52 125 122 210q9 9 19 9q24 -3 24 -25q0 -28 -59 -143l-20 -45q-3 -6 -7.5 -16t-5.5 -13 q16 -4 37 -4q83 0 156 -31q14 -6 14 -20q0 -5 -4 -13q-2 -4 -10 -12q-12 -4 -14 -4h-5q-55 20 -122 20q-16 -2 -52 -2q-24 0 -30 -16q-90 -196 -127 -348q-7 -35 -7 -53q0 -24 -12 -27h-6q-10 0 -16 12q-10 13 -13 29q-2 10 -2 25v8q22 146 88 327l2 5l7 20l-2 8l-86 -8 q-120 -12 -173 -31l-8 -2q-24 0 -24 25z" />
<glyph unicode="&#xb4;" horiz-adv-x="567" d="M336 1606q0 16 102 96q138 117 164 117l16 2q21 0 33 -15q13 -13 13 -24q0 -10 -9 -19q-2 -1 -31 -19.5t-95 -61t-140 -89.5q-11 -8 -27 -12q-26 0 -26 25z" />
<glyph unicode="&#xb5;" horiz-adv-x="1107" d="M-303 -240q0 32 151 342q142 280 306 576q147 256 194 373q23 77 23 100q-3 18 -23 41q-4 2 -4 22q0 27 27 27q10 0 22 -4q74 -30 74 -111q0 -85 -121 -292q-26 -43 -92 -164q-47 -88 -96 -166q-33 -56 -33 -119q0 -25 4 -37q15 -67 68 -67q31 0 61 18q73 37 152 125 q117 135 211 289q81 141 139 260q45 92 80 151q36 61 69 97q26 26 49 26q29 0 29 -30q-3 -13 -8 -15q-19 -19 -31 -37q-28 -38 -28 -49q-41 -70 -64 -112q-10 -21 -31 -60t-28 -53q-29 -56 -109 -199q-82 -140 -94 -289l-2 -41q0 -39 26 -59q5 -5 5 -10q-6 -17 -15 -17h-12 q-33 13 -47 48q-10 33 -10 82q0 16 2 26q2 8 2 25l-2 16q-18 -11 -27 -29q-58 -62 -80 -84q-92 -86 -170 -120q-43 -19 -104 -19q-21 3 -49 25q-29 26 -35 61q0 11 -2 15v16q-8 0 -21 -16q0 -3 -2 -3q-190 -342 -282 -548l-19 -31q-4 -4 -14 -4q-39 0 -39 24z" />
<glyph unicode="&#xb6;" horiz-adv-x="1468" d="M-12 -143q2 0 2 2q2 2 2 4q91 178 209 434l121 254v2q10 15 10 25q0 8 -2 10l-8 4q-131 12 -201 131q-60 100 -60 248q0 51 11 116q9 73 63 170q108 183 256 314q278 251 592 362q20 6 33 25q21 35 41 35q17 0 20 -15q2 -10 8 -16h17l4 2q102 21 164 21q60 0 88 -11 q15 -6 37 -6q12 0 24 6h4l9 -2q0 -15 24 -39q25 -22 25 -43l-4 -12q-3 -19 -27 -29q-5 0 -10 1l-6 1q-24 17 -31 17q-11 0 -29 -35q-311 -526 -655 -1290q-78 -173 -144 -310q-137 -286 -147 -315q-8 -23 -29 -65q-3 -7 -22 -7q-8 0 -12 4q-7 4 -7 13q0 2 1 6t1 6l2 2 l287 668q214 491 242 534q199 442 366 711q4 7 13.5 24t13.5 25q3 8 13.5 25.5t15.5 27.5q-13 13 -66 13q-55 0 -153 -29q-36 -6 -45 -21q-36 -43 -105 -180l-192 -375q-324 -628 -332 -659q42 0 63 6l45 10l15 5q10 0 10 -17q0 -18 -25 -27l-18 -6q-59 -18 -86 -20 q-23 -4 -31 -10q-12 -12 -133 -263q-141 -299 -219 -448q-19 -37 -31 -41q-17 0 -20 6q-2 4 -2 21zM129 936q0 -49 10 -88q10 -47 31 -94q20 -42 51 -66q35 -28 88 -39q21 -6 33 -6h6q12 0 19 10q1 1 432 906q58 123 127 239l-17 2l-30 -14q-113 -54 -197 -105 q-155 -102 -324 -280q-135 -147 -200 -318q-29 -74 -29 -147z" />
<glyph unicode="&#xb8;" horiz-adv-x="436" d="M-188 -86q0 7 6 10q2 4 8 4h2l8 -4q28 -22 64 -22q31 0 51 10q33 14 33 49l-4 16q-9 33 -39 33q-9 0 -54 -10h-10q-17 0 -24 10t-7 17q0 5 13 24q11 18 24 31l62 70q14 14 22 20q8 8 19 8q6 0 12 -6q4 -8 4 -10q0 -10 -25 -41l-24 -31q-6 -9 -12 -24q6 -9 18 -9 q40 0 57 -26q25 -36 25 -74q0 -29 -18 -53q-17 -25 -50 -35t-57 -10q-38 0 -76 18q-28 9 -28 35z" />
<glyph unicode="&#xbb;" horiz-adv-x="1046" d="M25 362q0 8 20 17q128 60 264 145q13 7 50.5 30t58.5 34q4 4 4 10q-8 11 -14 14q-1 1 -2.5 1.5l-3 1t-1.5 1.5q-148 90 -245 136q-17 10 -17 18q0 13 13 23l10 10q24 -6 94 -37q114 -55 207 -115q35 -25 35 -53q0 -34 -45 -57l-84 -47q-209 -118 -314 -154h-6 q-15 0 -24 22zM313 340q0 23 25 29q17 3 41 14q183 76 381 180q39 20 39 31q0 12 -27 27q-26 14 -110 71q-93 63 -132 99q-47 41 -47 61q0 29 21 29q12 0 22 -7q84 -78 234 -153l55 -29q70 -42 70 -82q0 -63 -66 -98q-259 -134 -463 -201h-8q-35 0 -35 29z" />
<glyph unicode="&#xbf;" horiz-adv-x="1515" d="M213 369q0 118 92 245q116 162 350 359q6 6 20.5 18.5l43.5 37.5t53 46q233 194 436 457q45 65 82 149q9 21 31 21q31 0 31 -31q-52 -156 -308 -446q-157 -177 -272 -277q-444 -371 -444 -596q0 -109 133 -153q64 -23 121 -23q50 0 96 14q85 23 151 60q127 77 179 156 q14 14 14 24q0 8 -16 21q-5 5 -5 12q0 5 11 16q21 21 69 21q21 -3 41 -23q20 -24 23 -45q0 -69 -88 -145q-173 -148 -406 -201q-35 -6 -78 -6q-68 0 -139 22q-112 37 -166 109q-55 70 -55 158zM1348 1958q0 35 20 55q18 21 49 21q25 -3 43 -21q19 -16 19 -45q0 -26 -21 -47 q-24 -24 -49 -27q-61 0 -61 64z" />
<glyph unicode="&#xc0;" d="M106 485l5 25q3 16 14 27q12 12 25 12q10 0 16 -2q12 -4 20 -4q9 0 21 4q338 103 774 196q44 9 66 48q69 121 159 258q234 362 512 718q333 426 590 619q171 131 285 131q84 0 131 -86q22 -52 22 -117q0 -206 -129 -547q-80 -213 -372 -839q20 -4 28 -4q11 0 15 2 q6 0 276 24q35 2 168 2q9 0 29 -10q15 -9 18 -29q0 -24 -29 -24l-22 -2q-107 -3 -338 -25q-49 -7 -133 -14q-22 -3 -41 -14q-44 -24 -520 -1078q-263 -580 -328 -704q-40 -77 -47 -94q-10 -17 -41 -17h-12q-66 0 -66 43q0 32 12 53l136 205q254 551 417 879q332 681 332 694 q0 10 -20 10q-69 -5 -269 -34q-336 -53 -622 -109q-42 -3 -66 -41q-248 -382 -366 -629q-8 -19 -8 -32q0 -12 12 -21q10 -10 10 -29q0 -12 -6 -30q-20 -75 -105 -156q-19 -16 -49 -16q-38 0 -71 20q-60 35 -60 84q0 76 395 692q51 80 58 101q-12 4 -19 4l-12 -4 q-4 -2 -10 -2q-303 -70 -604 -179q-68 -26 -113 -26q-68 6 -68 67zM1212 795q110 15 349 49q239 37 550 69q33 3 43 33q56 110 183 391q231 509 278 731q41 139 41 224q0 125 -82 125q-24 0 -67 -19q-131 -70 -281 -217q-276 -270 -584 -713q-230 -333 -430 -673zM2570 2875 q0 7 4 13q2 5 13 20q12 12 22 12q60 -12 238 -153l100 -76q29 -20 29 -45q0 -23 -21 -23q-14 2 -266 160q-119 73 -119 92z" />
<glyph unicode="&#xc1;" d="M106 485l5 25q3 16 14 27q12 12 25 12q10 0 16 -2q12 -4 20 -4q9 0 21 4q338 103 774 196q44 9 66 48q69 121 159 258q234 362 512 718q333 426 590 619q171 131 285 131q84 0 131 -86q22 -52 22 -117q0 -206 -129 -547q-80 -213 -372 -839q20 -4 28 -4q11 0 15 2 q6 0 276 24q35 2 168 2q9 0 29 -10q15 -9 18 -29q0 -24 -29 -24l-22 -2q-107 -3 -338 -25q-49 -7 -133 -14q-22 -3 -41 -14q-44 -24 -520 -1078q-263 -580 -328 -704q-40 -77 -47 -94q-10 -17 -41 -17h-12q-66 0 -66 43q0 32 12 53l136 205q254 551 417 879q332 681 332 694 q0 10 -20 10q-69 -5 -269 -34q-336 -53 -622 -109q-42 -3 -66 -41q-248 -382 -366 -629q-8 -19 -8 -32q0 -12 12 -21q10 -10 10 -29q0 -12 -6 -30q-20 -75 -105 -156q-19 -16 -49 -16q-38 0 -71 20q-60 35 -60 84q0 76 395 692q51 80 58 101q-12 4 -19 4l-12 -4 q-4 -2 -10 -2q-303 -70 -604 -179q-68 -26 -113 -26q-68 6 -68 67zM1212 795q110 15 349 49q239 37 550 69q33 3 43 33q56 110 183 391q231 509 278 731q41 139 41 224q0 125 -82 125q-24 0 -67 -19q-131 -70 -281 -217q-276 -270 -584 -713q-230 -333 -430 -673zM2593 2804 q0 15 8 28q16 10 90 43q258 120 322 123q11 -4 18 -16q10 -13 10 -25q0 -25 -45 -41q-336 -119 -389 -131q-14 3 -14 19z" />
<glyph unicode="&#xc2;" d="M106 485l5 25q3 16 14 27q12 12 25 12q10 0 16 -2q12 -4 20 -4q9 0 21 4q338 103 774 196q44 9 66 48q69 121 159 258q234 362 512 718q333 426 590 619q171 131 285 131q84 0 131 -86q22 -52 22 -117q0 -206 -129 -547q-115 -291 -272 -624l-100 -215q20 -4 28 -4 q11 0 17 2q4 2 12 2l262 22q35 2 168 2q9 0 29 -10q15 -9 18 -29q0 -24 -29 -24l-22 -2q-107 -3 -338 -25q-49 -7 -133 -14q-22 -3 -41 -14q-44 -24 -520 -1078q-263 -580 -328 -704q-40 -77 -47 -94q-10 -17 -41 -17h-12q-66 0 -66 43q0 32 12 53l136 205q254 551 417 879 q332 681 332 694q0 10 -20 10q-69 -5 -269 -34q-336 -53 -622 -109q-42 -3 -66 -41q-248 -382 -366 -629q-8 -19 -8 -32q0 -12 12 -21q10 -10 10 -29q0 -12 -6 -30q-20 -75 -105 -156q-19 -16 -49 -16q-38 0 -71 20q-60 35 -60 84q0 78 352 625l84 135q13 23 17 33 q-12 4 -19 4l-12 -4q-4 -2 -10 -2q-316 -73 -600 -177l-10 -4q-65 -24 -107 -24l-24 2q-44 15 -44 65zM1212 795q110 15 349 49q239 37 550 69q33 3 43 33q56 110 183 391q200 444 272 703l6 28q41 139 41 224q0 125 -82 125q-24 0 -67 -19q-131 -70 -281 -217 q-276 -270 -584 -713q-230 -333 -430 -673zM2638 2771q0 19 14 27q69 45 150 135l98 96q31 31 61 31q39 0 39 -49q0 -7 -4 -27q-4 -9 -8 -27q-6 -15 -6 -22q-31 -98 -31 -137l4 -35q0 -26 -14 -29h-6q-35 8 -35 64q0 51 8 92q4 28 4 59q-10 -10 -26 -22q-21 -16 -68 -72 q-101 -113 -143 -113q-37 0 -37 29z" />
<glyph unicode="&#xc3;" d="M106 485l5 25q3 16 14 27q12 12 25 12q10 0 16 -2q12 -4 20 -4q9 0 21 4q338 103 774 196q44 9 66 48q69 121 159 258q234 362 512 718q333 426 590 619q171 131 285 131q84 0 131 -86q22 -52 22 -117q0 -206 -129 -547q-115 -291 -272 -624l-100 -215q20 -4 28 -4 q11 0 17 2q4 2 12 2l262 22q35 2 168 2q9 0 29 -10q15 -9 18 -29q0 -24 -29 -24l-22 -2q-107 -3 -338 -25q-49 -7 -133 -14q-22 -3 -41 -14q-44 -24 -520 -1078q-263 -580 -328 -704q-40 -77 -47 -94q-10 -17 -41 -17h-12q-66 0 -66 43q0 32 12 53l136 205q254 551 417 879 q332 681 332 694q0 10 -20 10q-69 -5 -269 -34q-336 -53 -622 -109q-42 -3 -66 -41q-248 -382 -366 -629q-8 -19 -8 -32q0 -12 12 -21q10 -10 10 -29q0 -12 -6 -30q-20 -75 -105 -156q-19 -16 -49 -16q-38 0 -71 20q-60 35 -60 84q0 78 352 625l84 135q13 23 17 33 q-12 4 -19 4l-12 -4q-4 -2 -10 -2q-316 -73 -600 -177l-10 -4q-65 -24 -107 -24l-24 2q-44 15 -44 65zM1212 795q110 15 349 49q239 37 550 69q33 3 43 33q56 110 183 391q200 444 272 703l6 28q41 139 41 224q0 125 -82 125q-24 0 -67 -19q-131 -70 -281 -217 q-276 -270 -584 -713q-230 -333 -430 -673zM2597 2822q0 35 67 78q49 30 89 33q72 -3 81 -111q3 -26 21 -26q133 30 211 92q12 8 18 10q23 0 23 -23q0 -7 -6 -16q-27 -36 -125 -86q-113 -55 -150 -55q-48 0 -65 53l-17 57q-3 23 -14 23q-5 0 -14 -6q-38 -18 -47 -33 q-6 -11 -25 -19l-8 -4q-2 -2 -8 -2q-4 0 -19 11q-12 9 -12 24z" />
<glyph unicode="&#xc4;" d="M106 485l5 25q3 16 14 27q12 12 25 12q10 0 16 -2q12 -4 20 -4q9 0 21 4q338 103 774 196q44 9 66 48q69 121 159 258q234 362 512 718q333 426 590 619q171 131 285 131q84 0 131 -86q22 -52 22 -117q0 -206 -129 -547q-115 -291 -272 -624l-100 -215q20 -4 28 -4 q11 0 17 2q4 2 12 2l262 22q35 2 168 2q9 0 29 -10q15 -9 18 -29q0 -24 -29 -24l-22 -2q-107 -3 -338 -25q-49 -7 -133 -14q-22 -3 -41 -14q-44 -24 -520 -1078q-263 -580 -328 -704q-40 -77 -47 -94q-10 -17 -41 -17h-12q-66 0 -66 43q0 32 12 53l136 205q254 551 417 879 q332 681 332 694q0 10 -20 10q-69 -5 -269 -34q-336 -53 -622 -109q-42 -3 -66 -41q-248 -382 -366 -629q-8 -19 -8 -32q0 -12 12 -21q10 -10 10 -29q0 -12 -6 -30q-20 -75 -105 -156q-19 -16 -49 -16q-38 0 -71 20q-60 35 -60 84q0 78 352 625l84 135q13 23 17 33 q-12 4 -19 4l-12 -4q-4 -2 -10 -2q-316 -73 -600 -177l-10 -4q-65 -24 -107 -24l-24 2q-44 15 -44 65zM1212 795q110 15 349 49q239 37 550 69q33 3 43 33q56 110 183 391q200 444 272 703l6 28q41 139 41 224q0 125 -82 125q-24 0 -67 -19q-131 -70 -281 -217 q-276 -270 -584 -713q-230 -333 -430 -673zM2564 2808q6 43 29 88q44 86 104 86q58 0 58 -72q0 -50 -33 -86q-72 -78 -115 -78q-40 0 -43 62zM2879 2828q0 24 17 58q15 30 39 51q26 23 59 26q42 0 62 -26q12 -15 12 -35q0 -13 -6 -31q-65 -137 -111 -137q-27 0 -49 31 q-23 33 -23 63z" />
<glyph unicode="&#xc5;" d="M106 485l5 25q3 16 14 27q12 12 25 12q10 0 16 -2q12 -4 20 -4q9 0 21 4q338 103 774 196q44 9 66 48q69 121 159 258q234 362 512 718q333 426 590 619q171 131 285 131q84 0 131 -86q22 -52 22 -117q0 -206 -129 -547q-115 -291 -272 -624l-100 -215q20 -4 28 -4 q11 0 17 2q4 2 12 2l262 22q35 2 168 2q9 0 29 -10q15 -9 18 -29q0 -24 -29 -24l-22 -2q-107 -3 -338 -25q-49 -7 -133 -14q-22 -3 -41 -14q-44 -24 -520 -1078q-263 -580 -328 -704q-40 -77 -47 -94q-10 -17 -41 -17h-12q-66 0 -66 43q0 32 12 53l136 205q254 551 417 879 q332 681 332 694q0 10 -20 10q-69 -5 -269 -34q-336 -53 -622 -109q-42 -3 -66 -41q-248 -382 -366 -629q-8 -19 -8 -32q0 -12 12 -21q10 -10 10 -29q0 -12 -6 -30q-20 -75 -105 -156q-19 -16 -49 -16q-38 0 -71 20q-60 35 -60 84q0 78 352 625l84 135q13 23 17 33 q-12 4 -19 4l-12 -4q-4 -2 -10 -2q-316 -73 -600 -177l-10 -4q-65 -24 -107 -24l-24 2q-44 15 -44 65zM1212 795q110 15 349 49q239 37 550 69q33 3 43 33q56 110 183 391q200 444 272 703l6 28q41 139 41 224q0 125 -82 125q-24 0 -67 -19q-131 -70 -281 -217 q-276 -270 -584 -713q-230 -333 -430 -673zM2763 2859q24 142 104 242q5 16 17 16l20 -2q13 0 23 2q21 5 28 8q6 1 18.5 3t18.5 3q22 0 37 -12q16 -13 25 -31q10 -23 10 -41q0 -120 -94 -231q-59 -68 -123 -68q-84 0 -84 111zM2826 2851q0 -11 2 -15q3 -9 13 -12q9 -6 16 -6 q5 0 29 12q105 76 120 203q0 43 -22 43q-87 0 -139 -137q-19 -55 -19 -88z" />
<glyph unicode="&#xc6;" horiz-adv-x="4653" d="M98 479q0 20 13 43q9 19 30 19q11 0 17 -2q12 -4 18 -4q11 0 23 4q338 103 774 196q42 9 63 49q51 86 162 256q245 382 512 719q331 425 592 619q171 131 287 131q83 0 127 -84q22 -52 22 -129q0 -192 -129 -533q-89 -235 -270 -620q-71 -152 -101 -223l23 -2l225 18 q249 156 525 258q29 9 88 31l-78 14q-61 8 -142 25q-169 34 -247 127q-54 63 -54 135q0 83 70 196q101 158 234 283q324 292 704 457q61 28 168 53q82 18 223 18q55 -3 129 -32q77 -30 117 -88q49 -73 49 -170q0 -54 -14 -103q-65 -219 -248 -475q-98 -137 -190 -137 q-46 0 -70 35q-10 20 -10 39q0 25 26 73q47 80 84 80l23 -4q16 0 35 29q219 313 219 461q0 24 -13 71q-13 43 -81 72q-73 31 -144 31q-203 0 -616 -250q-342 -206 -533 -477q-53 -80 -53 -142q0 -3 0.5 -8.5t1.5 -16t2 -20.5q3 -36 62 -80q56 -44 141 -69q106 -34 233 -43 l70 -6q70 -12 76 -60q0 -30 -19 -49q-29 -29 -194 -70q-184 -64 -389 -178h53q9 0 29 -10q16 -11 20 -29q0 -28 -53 -28q-94 -3 -174 -9q-168 -105 -322 -247q-330 -303 -389 -654q-6 -38 -6 -75q0 -142 72 -277q50 -93 141 -166q177 -143 500 -143q264 0 524 94 q353 125 768 444q385 295 870 750q14 14 31 14q23 0 23 -18q-4 -16 -17 -29q-406 -395 -881 -776q-713 -569 -1345 -569q-155 0 -301 41q-142 40 -252 133q-109 90 -162 213q-56 121 -59 258q-11 -23 -80 -174q-212 -467 -303 -652q-31 -51 -47 -88q-9 -15 -39 -18 q-39 0 -58 8q-20 9 -20 43q0 23 12 47l135 205q247 530 396 836q17 33 75 155q8 18 24 49.5t19 38.5l19 37q217 447 217 459q0 10 -20 10q-71 -5 -269 -37q-378 -60 -624 -106q-44 -6 -64 -43q-248 -382 -366 -629q-9 -15 -9 -35q0 -7 11 -18q10 -10 10 -29q0 -7 -4 -31 q-23 -79 -105 -155q-24 -17 -49 -17q-38 0 -72 21q-61 34 -61 84q0 56 350 622q100 151 103 170q-15 5 -17 5l-22 -7q-317 -73 -602 -174l-7 -4q-68 -26 -108 -26l-25 2q-43 18 -43 67zM1202 786q14 2 348 50q270 42 551 71q36 3 45 31q89 188 189 405q205 457 264 689l8 24 q43 148 43 225q0 65 -27 103q-17 26 -57 26q-28 0 -65 -18q-246 -129 -598 -569q-335 -426 -701 -1037zM2097 629q111 114 262 223l-110 -12q-57 -7 -74 -47z" />
<glyph unicode="&#xc7;" horiz-adv-x="2828" d="M266 -8q0 309 131 653q162 437 471 846q285 380 576 612q243 208 502 330q238 113 438 113q72 0 143 -15q111 -27 174 -114q56 -77 56 -172q0 -124 -70 -295q-120 -304 -246 -480q-36 -45 -92 -45q-26 0 -57 17q-35 21 -35 59q0 35 27 82q22 40 53 64q33 22 84 96 q84 131 133 254q9 24 18 45l29 74q22 64 22 116q0 54 -26 105q-40 76 -225 76q-208 0 -453 -136q-334 -184 -647 -503q-426 -438 -676 -953q-219 -458 -219 -844q0 -95 12 -186q20 -151 117 -268q156 -193 495 -193q209 0 447 86q333 123 698 420q291 242 650 604l172 170 q18 15 32 15q25 0 25 -27q0 -19 -225 -262q-309 -334 -592 -563q-376 -309 -742 -447q-244 -90 -458 -90q-90 0 -195 19q-1 -1 -8 -11t-12 -16q-46 -52 -52 -78q7 -2 25 -6q52 -3 74 -35q18 -30 28 -86q0 -135 -159 -135q-52 0 -99 20q-32 14 -32 43q0 23 20 23l10 -4 q29 -29 80 -29q45 0 66 12q43 24 43 60q0 6 -4 22q-15 43 -52 43q-27 0 -73 -12h-13q-20 0 -26 14q-8 11 -8 19q0 21 129 162q1 1 3 4t3 4q-38 8 -80 24q-165 56 -258 168q-152 178 -152 531z" />
<glyph unicode="&#xc8;" horiz-adv-x="3012" d="M119 -104q0 210 106 409q165 310 516 557q326 227 648 338l90 33l-82 12q-38 5 -142 27q-163 34 -245 125q-54 63 -54 137q0 82 70 197q96 151 234 280q315 288 704 457q162 72 334 72h57q46 0 131 -31q75 -31 115 -88q49 -73 49 -164q0 -52 -16 -111q-67 -226 -246 -473 q-101 -137 -190 -137q-48 0 -70 35q-10 15 -10 37q0 25 26 73q41 80 82 80l21 -2q13 0 30 17l7 10q77 102 149 235q72 135 72 226q0 24 -13 71q-12 44 -82 74q-76 29 -141 29q-205 0 -618 -250q-348 -211 -533 -475q-53 -76 -53 -142q0 -20 4 -45q3 -36 61 -79 q101 -79 314 -109q144 -9 176 -25q31 -19 31 -51q0 -27 -19 -43q-29 -29 -194 -72q-141 -46 -297 -126q-348 -176 -592 -426q-284 -291 -336 -603q-6 -35 -6 -73q0 -145 72 -277q50 -93 141 -166q177 -143 500 -143q264 0 524 94q361 128 766 445q387 296 872 749 q14 14 33 14q18 0 18 -16q0 -14 -16 -33q-431 -414 -879 -774q-708 -567 -1343 -567q-382 0 -588 203q-188 182 -188 465zM2439 2908q0 6 4 12q2 7 13 21q12 12 22 12q60 -12 238 -153l100 -76q29 -20 29 -45q0 -23 -21 -23q-14 2 -266 160q-119 73 -119 92z" />
<glyph unicode="&#xc9;" horiz-adv-x="3012" d="M119 -104q0 210 106 409q165 310 516 557q326 227 648 338l90 33l-82 12q-38 5 -142 27q-163 34 -245 125q-54 63 -54 137q0 82 70 197q96 151 234 280q315 288 704 457q162 72 334 72h57q46 0 131 -31q75 -31 115 -88q49 -73 49 -164q0 -52 -16 -111q-67 -226 -246 -473 q-101 -137 -190 -137q-48 0 -70 35q-10 15 -10 37q0 25 26 73q41 80 82 80l21 -2q13 0 30 17l7 10q77 102 149 235q72 135 72 226q0 24 -13 71q-12 44 -82 74q-76 29 -141 29q-205 0 -618 -250q-348 -211 -533 -475q-53 -76 -53 -142q0 -20 4 -45q3 -36 61 -79 q101 -79 314 -109q144 -9 176 -25q31 -19 31 -51q0 -27 -19 -43q-29 -29 -194 -72q-141 -46 -297 -126q-348 -176 -592 -426q-284 -291 -336 -603q-6 -35 -6 -73q0 -145 72 -277q50 -93 141 -166q177 -143 500 -143q264 0 524 94q361 128 766 445q387 296 872 749 q14 14 33 14q18 0 18 -16q0 -14 -16 -33q-431 -414 -879 -774q-708 -567 -1343 -567q-382 0 -588 203q-188 182 -188 465zM2384 2783q0 16 8 29q16 10 90 43q258 120 322 123q10 -3 18 -17q10 -13 10 -24q0 -25 -45 -41q-336 -119 -389 -131q-14 3 -14 18z" />
<glyph unicode="&#xca;" horiz-adv-x="3012" d="M119 -104q0 210 106 409q165 310 516 557q326 227 648 338l90 33l-82 12q-38 5 -142 27q-163 34 -245 125q-54 63 -54 137q0 82 70 197q96 151 234 280q315 288 704 457q162 72 334 72h57q46 0 131 -31q75 -31 115 -88q49 -73 49 -164q0 -52 -16 -111q-67 -226 -246 -473 q-101 -137 -190 -137q-48 0 -70 35q-10 15 -10 37q0 25 26 73q41 80 82 80l21 -2q13 0 30 17l7 10q77 102 149 235q72 135 72 226q0 24 -13 71q-12 44 -82 74q-76 29 -141 29q-205 0 -618 -250q-348 -211 -533 -475q-53 -76 -53 -142q0 -20 4 -45q3 -36 61 -79 q101 -79 314 -109q144 -9 176 -25q31 -19 31 -51q0 -27 -19 -43q-29 -29 -194 -72q-141 -46 -297 -126q-348 -176 -592 -426q-284 -291 -336 -603q-6 -35 -6 -73q0 -145 72 -277q50 -93 141 -166q177 -143 500 -143q264 0 524 94q361 128 766 445q387 296 872 749 q14 14 33 14q18 0 18 -16q0 -14 -16 -33q-431 -414 -879 -774q-708 -567 -1343 -567q-382 0 -588 203q-188 182 -188 465zM2361 2771q0 18 15 27q66 44 149 135l98 96q31 31 62 31q39 0 39 -49q0 -7 -4 -27q-4 -9 -8 -27q-7 -18 -7 -22q-30 -94 -30 -137l4 -35 q0 -26 -15 -29h-6q-35 8 -35 64q0 46 9 92q4 28 4 59q-7 -7 -27 -22q-17 -14 -67 -72q-101 -113 -144 -113q-37 0 -37 29z" />
<glyph unicode="&#xcb;" horiz-adv-x="3012" d="M119 -104q0 210 106 409q165 310 516 557q326 227 648 338l90 33l-82 12q-38 5 -142 27q-163 34 -245 125q-54 63 -54 137q0 82 70 197q96 151 234 280q315 288 704 457q162 72 334 72h57q46 0 131 -31q75 -31 115 -88q49 -73 49 -164q0 -52 -16 -111q-67 -226 -246 -473 q-101 -137 -190 -137q-48 0 -70 35q-10 15 -10 37q0 25 26 73q41 80 82 80l21 -2q13 0 30 17l7 10q77 102 149 235q72 135 72 226q0 24 -13 71q-12 44 -82 74q-76 29 -141 29q-205 0 -618 -250q-348 -211 -533 -475q-53 -76 -53 -142q0 -20 4 -45q3 -36 61 -79 q101 -79 314 -109q144 -9 176 -25q31 -19 31 -51q0 -27 -19 -43q-29 -29 -194 -72q-141 -46 -297 -126q-348 -176 -592 -426q-284 -291 -336 -603q-6 -35 -6 -73q0 -145 72 -277q50 -93 141 -166q177 -143 500 -143q264 0 524 94q361 128 766 445q387 296 872 749 q14 14 33 14q18 0 18 -16q0 -14 -16 -33q-431 -414 -879 -774q-708 -567 -1343 -567q-382 0 -588 203q-188 182 -188 465zM2396 2820q6 43 29 88q44 86 104 86q58 0 58 -72q0 -50 -33 -86q-71 -77 -115 -77q-40 0 -43 61zM2712 2841q0 25 16 57q15 30 39 51q28 24 59 27 q41 0 62 -27q12 -15 12 -35q0 -12 -6 -30q-66 -138 -111 -138q-27 0 -49 31t-22 64z" />
<glyph unicode="&#xcc;" horiz-adv-x="1337" d="M106 1454l3 21q20 71 77 149q261 354 527 578q133 115 297 208q189 113 319 113q106 0 187 -72q88 -82 88 -219q-3 -209 -195 -614q-124 -262 -352 -668q-181 -314 -416 -800q-301 -623 -393 -914q-9 -18 -25 -18q-4 0 -16 4q-8 3 -14 12q-7 7 -7 12q0 35 74 224 q309 776 795 1683l32 59q157 279 263 523q129 295 129 460q0 20 -4 56q-24 147 -146 147q-91 0 -221 -74q-156 -86 -334 -241q-259 -229 -438 -467q-62 -74 -68 -148q-3 -36 -32 -55q-30 -18 -64 -18q-31 0 -49 18q-17 20 -17 41zM1444 2955q0 7 4 13q2 7 12 20q12 12 23 12 q59 -12 237 -153l101 -76q28 -20 28 -45q0 -23 -20 -23q-14 2 -266 160q-119 73 -119 92z" />
<glyph unicode="&#xcd;" horiz-adv-x="1337" d="M106 1454l3 21q20 71 77 149q261 354 527 578q133 115 297 208q189 113 319 113q106 0 187 -72q88 -82 88 -219q-3 -209 -195 -614q-124 -262 -352 -668q-181 -314 -416 -800q-301 -623 -393 -914q-9 -18 -25 -18q-4 0 -16 4q-8 3 -14 12q-7 7 -7 12q0 35 74 224 q309 776 795 1683l32 59q157 279 263 523q129 295 129 460q0 20 -4 56q-24 147 -146 147q-91 0 -221 -74q-156 -86 -334 -241q-259 -229 -438 -467q-62 -74 -68 -148q-3 -36 -32 -55q-30 -18 -64 -18q-31 0 -49 18q-17 20 -17 41zM1481 2806q0 15 8 28q16 10 90 43 q258 120 322 123q11 -3 18 -16q10 -13 10 -25q0 -25 -45 -41q-336 -119 -389 -131q-14 3 -14 19z" />
<glyph unicode="&#xce;" horiz-adv-x="1337" d="M106 1454l3 21q20 71 77 149q261 354 527 578q133 115 297 208q189 113 319 113q106 0 187 -72q88 -82 88 -219q-3 -209 -195 -614q-124 -262 -352 -668q-181 -314 -416 -800q-301 -623 -393 -914q-9 -18 -25 -18q-4 0 -16 4q-8 3 -14 12q-7 7 -7 12q0 35 74 224 q309 776 795 1683l32 59q157 279 263 523q129 295 129 460q0 20 -4 56q-24 147 -146 147q-91 0 -221 -74q-156 -86 -334 -241q-259 -229 -438 -467q-62 -74 -68 -148q-3 -36 -32 -55q-30 -18 -64 -18q-31 0 -49 18q-17 20 -17 41zM1432 2822q0 19 14 27q66 44 149 135l99 96 q31 31 61 31q39 0 39 -49q0 -7 -4 -27q-5 -9 -8 -26q-6 -15 -6 -23q-31 -98 -31 -137l4 -35q0 -26 -14 -29h-6q-35 8 -35 64q0 51 8 92q4 28 4 59q-7 -7 -27 -22q-17 -14 -67 -72q-101 -113 -144 -113q-36 0 -36 29z" />
<glyph unicode="&#xcf;" horiz-adv-x="1337" d="M106 1454l3 21q20 71 77 149q261 354 527 578q133 115 297 208q189 113 319 113q106 0 187 -72q88 -82 88 -219q-3 -209 -195 -614q-124 -262 -352 -668q-181 -314 -416 -800q-301 -623 -393 -914q-9 -18 -25 -18q-4 0 -16 4q-8 3 -14 12q-7 7 -7 12q0 35 74 224 q309 776 795 1683l32 59q157 279 263 523q129 295 129 460q0 20 -4 56q-24 147 -146 147q-91 0 -221 -74q-156 -86 -334 -241q-259 -229 -438 -467q-62 -74 -68 -148q-3 -36 -32 -55q-30 -18 -64 -18q-31 0 -49 18q-17 20 -17 41zM1378 2879q6 44 29 89q44 86 104 86 q58 0 58 -72q0 -50 -33 -86q-72 -78 -115 -78q-40 0 -43 61zM1694 2900q0 25 16 57t39 52q26 23 59 26q42 0 62 -26q12 -15 12 -35q0 -13 -6 -31q-65 -137 -111 -137q-28 0 -49 30q-22 31 -22 64z" />
<glyph unicode="&#xd0;" horiz-adv-x="2557" d="M86 -197q3 270 166 527q254 386 762 706q20 10 43 29h-8q-262 3 -277 12q-22 3 -22 31v4q3 31 45 47q54 -1 114 -2t92 -1.5t46 -0.5h96q11 18 16 31q242 493 469 794q66 84 105 84q30 0 30 -34q0 -51 -43 -115q-384 -635 -434 -723h8q11 0 19 8q181 91 311 133l10 2 q10 0 19 -6q10 -10 10 -26q0 -18 -21 -27q-91 -28 -182 -74q-47 -24 -92 -49h121q133 0 133 -45q-9 -37 -35 -37q-10 2 -168 2l-178 -2q-1 -1 -6.5 -11t-7.5 -16q-2 0 -2 -2q-137 -245 -299 -649q-186 -454 -221 -682q-3 -33 -46 -39q-12 0 -24 9q-12 6 -12 14 q0 162 172 627q142 376 256 645l2 8l-19 -8q-339 -227 -522 -416q-240 -246 -315 -508q-37 -124 -37 -238q0 -160 78 -247q107 -125 327 -125q172 0 365 75q252 92 473 273q818 652 1018 1456q51 203 51 412q0 179 -53 336q-54 160 -172 241q-122 84 -291 84 q-277 0 -522 -78q-242 -76 -469 -239q-43 -34 -43 -70q-5 -31 -35 -47q-52 -25 -96 -25q-13 0 -25 2q-19 0 -35 25q-6 12 -6 27q0 47 49 96q72 61 197 131l71 43q207 125 426 184q248 68 478 68q252 0 432 -174q89 -89 135 -217q55 -162 55 -408q0 -146 -22 -278 q-88 -441 -369 -869q-294 -436 -741 -764q-363 -269 -781 -342q-52 -8 -110 -8q-93 0 -193 33q-107 35 -184 137q-79 101 -82 266z" />
<glyph unicode="&#xd1;" horiz-adv-x="2883" d="M61 -872q0 70 66 223q24 61 33 90q110 310 282 663q334 686 748 1317l55 88l164 250q235 348 430 549q159 164 256 164q113 0 113 -152q0 -52 -15 -125q-64 -324 -270 -970q-91 -279 -178 -592q-110 -393 -180 -828q-13 -80 -13 -153v-80q3 -66 35 -131q17 -33 35 -33 q13 0 31 6q133 47 305 307q129 193 217 377q198 414 508 1170l49 121q64 156 129 323q59 154 148 369q112 287 251 444q34 37 58 37q26 0 26 -22q0 -20 -22 -39q-97 -76 -162 -224q-106 -245 -194 -514q-26 -76 -125 -346q-150 -377 -435 -1046l-61 -142q-73 -160 -104 -223 q-163 -328 -330 -534q-168 -207 -283 -207q-20 0 -57 12q-39 9 -80 68q-39 54 -61 127q-21 70 -21 133v12q9 506 184 1085q62 203 140 431q147 431 213 659q104 351 104 506q0 31 -18 31q-26 0 -72 -43q-72 -67 -193 -195q-150 -167 -307 -420q-100 -156 -102 -160 q-377 -558 -752 -1308q-163 -334 -291 -709q-74 -210 -110 -381q-12 -69 -84 -69q-60 9 -60 84zM2570 2845q0 33 68 77q49 30 88 33q73 -3 82 -110q3 -27 20 -27q133 30 211 92q11 7 19 10q22 0 22 -22q0 -7 -6 -16q-27 -36 -125 -86q-115 -56 -149 -56q-49 0 -66 53l-16 58 q-3 22 -15 22q-5 0 -14 -6q-38 -18 -47 -33q-5 -10 -25 -18l-8 -4q-2 -2 -8 -2q-5 0 -18 10t-13 25z" />
<glyph unicode="&#xd2;" horiz-adv-x="2156" d="M106 -246q0 262 144 670q111 310 270 641q12 24 12 51v14q-12 83 -12 164q0 216 84 457q127 373 379 631q115 115 268 190q156 73 314 76q216 0 370 -139q103 -93 158 -199q88 -177 88 -432v-47q-3 -187 -57 -408q-99 -401 -320 -848q-201 -408 -409 -704 q-247 -345 -578 -553q-166 -100 -311 -100q-35 0 -86 2q-77 3 -178 110q-112 121 -133 351q-3 38 -3 73zM221 -236q0 -222 92 -337q84 -97 213 -97q172 0 373 158q377 294 657 780q319 545 474 1080q73 265 73 505q0 84 -10 189q-27 265 -252 438q-126 100 -285 100 q-78 0 -163 -24q-170 -50 -310 -172q-287 -251 -415 -647q-80 -232 -80 -426l2 -66q1 -2 2 -7.5t2 -8.5q0 -8 6 -8q4 0 117 186q205 367 323 465q62 47 107 47q25 0 43 -12q27 -24 27 -66q-3 -39 -19 -86q-30 -80 -55 -80q-13 0 -29 11q-15 12 -18 12q-14 0 -70 -68 q-226 -277 -383 -598q-8 -20 -8 -28q0 -9 4 -21q31 -98 92 -156q175 -172 377 -172q46 0 96 9l13 2q18 0 18 -9q0 -10 -25 -16q-53 -16 -106 -16q-129 0 -266 67q-95 43 -152 101l-16 18q-59 56 -82 109q-15 -19 -19 -29q-2 -2 -2 -6q-214 -438 -319 -893q-27 -111 -27 -228 zM1804 3060q0 6 4 12q2 5 13 20q13 13 22 13q58 -12 238 -154l100 -76q29 -20 29 -45q0 -22 -21 -22q-14 2 -266 160q-119 73 -119 92z" />
<glyph unicode="&#xd3;" horiz-adv-x="2156" d="M106 -246q0 262 144 670q111 310 270 641q12 24 12 51v14q-12 83 -12 164q0 216 84 457q127 373 379 631q115 115 268 190q156 73 314 76q216 0 370 -139q103 -93 158 -199q88 -177 88 -432v-47q-3 -187 -57 -408q-99 -401 -320 -848q-201 -408 -409 -704 q-247 -345 -578 -553q-166 -100 -311 -100q-35 0 -86 2q-77 3 -178 110q-112 121 -133 351q-3 38 -3 73zM221 -236q0 -222 92 -337q84 -97 213 -97q172 0 373 158q377 294 657 780q319 545 474 1080q73 265 73 505q0 84 -10 189q-27 265 -252 438q-126 100 -285 100 q-78 0 -163 -24q-170 -50 -310 -172q-287 -251 -415 -647q-80 -232 -80 -426l2 -66q1 -2 2 -7.5t2 -8.5q0 -8 6 -8q4 0 117 186q205 367 323 465q62 47 107 47q25 0 43 -12q27 -24 27 -66q-3 -39 -19 -86q-30 -80 -55 -80q-13 0 -29 11q-15 12 -18 12q-14 0 -70 -68 q-226 -277 -383 -598q-8 -20 -8 -28q0 -9 4 -21q31 -98 92 -156q175 -172 377 -172q46 0 96 9l13 2q18 0 18 -9q0 -10 -25 -16q-53 -16 -106 -16q-129 0 -266 67q-95 43 -152 101l-16 18q-59 56 -82 109q-15 -19 -19 -29q-2 -2 -2 -6q-214 -438 -319 -893q-27 -111 -27 -228 zM1792 2882q0 15 8 28q16 10 90 43q258 120 322 123q10 -4 18 -16q11 -15 11 -25q0 -25 -46 -41q-336 -119 -389 -131q-14 3 -14 19z" />
<glyph unicode="&#xd4;" horiz-adv-x="2156" d="M106 -246q0 262 144 670q111 310 270 641q12 24 12 51v14q-12 83 -12 164q0 216 84 457q127 373 379 631q115 115 268 190q156 73 314 76q216 0 370 -139q103 -93 158 -199q88 -177 88 -432v-47q-3 -187 -57 -408q-99 -401 -320 -848q-201 -408 -409 -704 q-247 -345 -578 -553q-166 -100 -311 -100q-35 0 -86 2q-77 3 -178 110q-112 121 -133 351q-3 38 -3 73zM221 -236q0 -222 92 -337q84 -97 213 -97q172 0 373 158q377 294 657 780q319 545 474 1080q73 265 73 505q0 84 -10 189q-27 265 -252 438q-126 100 -285 100 q-78 0 -163 -24q-170 -50 -310 -172q-287 -251 -415 -647q-80 -232 -80 -426l2 -66q1 -2 2 -7.5t2 -8.5q0 -8 6 -8q4 0 117 186q205 367 323 465q62 47 107 47q25 0 43 -12q27 -24 27 -66q-3 -39 -19 -86q-30 -80 -55 -80q-13 0 -29 11q-15 12 -18 12q-14 0 -70 -68 q-226 -277 -383 -598q-8 -20 -8 -28q0 -9 4 -21q31 -98 92 -156q175 -172 377 -172q46 0 96 9l13 2q18 0 18 -9q0 -10 -25 -16q-53 -16 -106 -16q-129 0 -266 67q-95 43 -152 101l-16 18q-59 56 -82 109q-15 -19 -19 -29q-2 -2 -2 -6q-214 -438 -319 -893q-27 -111 -27 -228 zM1896 2834q0 18 15 27q66 44 149 135l99 96q31 31 61 31q39 0 39 -49q0 -7 -4 -27q-5 -9 -8 -26q-6 -15 -6 -23q-31 -98 -31 -137l4 -35q0 -25 -14 -28h-7q-34 8 -34 63q0 51 8 92q4 28 4 60q-11 -11 -27 -23q-17 -14 -67 -72q-100 -112 -144 -112q-37 0 -37 28z" />
<glyph unicode="&#xd5;" horiz-adv-x="2156" d="M106 -246q0 262 144 670q111 310 270 641q12 24 12 51v14q-12 83 -12 164q0 216 84 457q127 373 379 631q115 115 268 190q156 73 314 76q216 0 370 -139q103 -93 158 -199q88 -177 88 -432v-47q-3 -187 -57 -408q-99 -401 -320 -848q-201 -408 -409 -704 q-247 -345 -578 -553q-166 -100 -311 -100q-35 0 -86 2q-77 3 -178 110q-112 121 -133 351q-3 38 -3 73zM221 -236q0 -222 92 -337q84 -97 213 -97q172 0 373 158q377 294 657 780q319 545 474 1080q73 265 73 505q0 84 -10 189q-27 265 -252 438q-126 100 -285 100 q-78 0 -163 -24q-170 -50 -310 -172q-287 -251 -415 -647q-80 -232 -80 -426l2 -66q1 -2 2 -7.5t2 -8.5q0 -8 6 -8q4 0 117 186q205 367 323 465q62 47 107 47q25 0 43 -12q27 -24 27 -66q-3 -39 -19 -86q-30 -80 -55 -80q-13 0 -29 11q-15 12 -18 12q-14 0 -70 -68 q-226 -277 -383 -598q-8 -20 -8 -28q0 -9 4 -21q31 -98 92 -156q175 -172 377 -172q46 0 96 9l13 2q18 0 18 -9q0 -10 -25 -16q-53 -16 -106 -16q-129 0 -266 67q-95 43 -152 101l-16 18q-59 56 -82 109q-15 -19 -19 -29q-2 -2 -2 -6q-214 -438 -319 -893q-27 -111 -27 -228 zM1878 3011q0 33 68 77q49 30 88 33q73 -3 82 -110q3 -27 20 -27q133 30 211 92q12 8 18 10q23 0 23 -22q0 -8 -6 -17q-27 -36 -125 -86q-113 -55 -150 -55q-48 0 -65 53l-17 58q-3 22 -14 22q-5 0 -14 -6q-38 -18 -47 -33q-5 -10 -25 -18l-8 -4q-2 -2 -8 -2t-19 10 q-12 9 -12 25z" />
<glyph unicode="&#xd6;" horiz-adv-x="2156" d="M106 -246q0 262 144 670q111 310 270 641q12 24 12 51v14q-12 83 -12 164q0 216 84 457q127 373 379 631q115 115 268 190q156 73 314 76q216 0 370 -139q103 -93 158 -199q88 -177 88 -432v-47q-3 -187 -57 -408q-99 -401 -320 -848q-201 -408 -409 -704 q-247 -345 -578 -553q-166 -100 -311 -100q-35 0 -86 2q-77 3 -178 110q-112 121 -133 351q-3 38 -3 73zM221 -236q0 -222 92 -337q84 -97 213 -97q172 0 373 158q377 294 657 780q319 545 474 1080q73 265 73 505q0 84 -10 189q-27 265 -252 438q-126 100 -285 100 q-78 0 -163 -24q-170 -50 -310 -172q-287 -251 -415 -647q-80 -232 -80 -426l2 -66q1 -2 2 -7.5t2 -8.5q0 -8 6 -8q4 0 117 186q205 367 323 465q62 47 107 47q25 0 43 -12q27 -24 27 -66q-3 -39 -19 -86q-30 -80 -55 -80q-13 0 -29 11q-15 12 -18 12q-14 0 -70 -68 q-226 -277 -383 -598q-8 -20 -8 -28q0 -9 4 -21q31 -98 92 -156q175 -172 377 -172q46 0 96 9l13 2q18 0 18 -9q0 -10 -25 -16q-53 -16 -106 -16q-129 0 -266 67q-95 43 -152 101l-16 18q-59 56 -82 109q-15 -19 -19 -29q-2 -2 -2 -6q-214 -438 -319 -893q-27 -111 -27 -228 zM1898 2951q6 43 29 88q44 86 105 86q57 0 57 -71q0 -50 -33 -86q-72 -78 -114 -78q-41 0 -44 61zM2214 2972q0 25 16 57q15 30 39 51q28 24 60 27q40 0 61 -27q12 -15 12 -35q0 -12 -6 -30q-66 -138 -110 -138q-28 0 -50 31t-22 64z" />
<glyph unicode="&#xd7;" horiz-adv-x="987" d="M8 426q0 13 15 31q26 34 96 135q57 85 119 164q28 36 28 67q-4 58 -4 84q0 49 6 131q0 33 11 90q6 19 22 19q31 0 31 -41l-2 -19q0 -157 2 -192v-25q8 0 10 -2q4 4 14 19q7 7 13 16t22 25q113 148 209 211q29 16 47 16q31 0 31 -22q0 -12 -16 -25q-96 -83 -216 -223 l-84 -94q-16 -16 -16 -41q24 -297 162 -353q18 0 18 -22q-6 -13 -14 -13q-12 0 -33 7q-128 52 -184 305q-6 18 -6 31q-19 0 -125 -148q-115 -151 -133 -151q-23 0 -23 20z" />
<glyph unicode="&#xd8;" horiz-adv-x="2156" d="M106 -246q0 262 144 670q111 310 270 641q12 24 12 51v14q-12 83 -12 164q0 216 84 457q127 373 379 631q115 115 268 190q156 73 314 76q213 0 370 -139q2 -1 5.5 -4t5.5 -4q18 36 20 39q150 267 244 395q4 6 14 16q8 8 25 8q10 0 18 -8q10 -10 10 -24q0 -13 -14 -33 q-62 -92 -190 -318q-13 -23 -36.5 -67t-35.5 -66q56 -65 92 -133q88 -177 88 -432v-47q-3 -187 -57 -408q-102 -401 -320 -848q-201 -408 -409 -704q-244 -345 -578 -553q-166 -100 -311 -100q-2 0 -12.5 0.5t-31 1.5t-42.5 2q-19 0 -29 4q-41 -90 -119 -266q0 -1 -4 -9 q-4 -12 -4 -16v-4q4 -12 4 -21q0 -13 -12 -43q-5 -11 -10 -34q-3 -17 -23 -27q-19 -8 -41 -8q-15 0 -24 12q-10 13 -13 31q-6 15 -6 31q3 61 37 145l2 4l117 258q-33 29 -53 51q-112 121 -133 351q-3 35 -3 73zM221 -236q0 -222 92 -337q10 -13 35 -33q278 610 414 878 q83 169 188 375q-49 16 -112 45q-95 43 -152 101l-16 18q-59 53 -82 109q-15 -19 -19 -29q-2 -2 -2 -6q-210 -435 -319 -893q-27 -114 -27 -228zM444 -659q49 -11 82 -11q168 0 373 158q377 294 657 780q318 542 474 1080q73 265 73 505q0 84 -10 189q-18 183 -133 325 q-517 -966 -887 -1710q12 -2 35 -2q46 0 96 9l13 2q18 0 18 -9q0 -10 -25 -16q-53 -16 -106 -16q-31 0 -45 2q-356 -719 -615 -1286zM588 1311l2 -66q1 -2 2 -7t2 -7q3 -10 6 -10q4 0 117 186q209 375 323 465q59 47 107 47q25 0 43 -12q27 -24 27 -66q-3 -39 -19 -86 q-30 -80 -55 -80q-11 0 -27 13l-20 10q-14 0 -70 -68q-226 -277 -383 -598q-8 -13 -8 -28q0 -9 4 -21q28 -98 92 -156q111 -108 236 -149q340 657 938 1749q-41 37 -64 53q-126 100 -285 100q-78 0 -163 -24q-170 -50 -310 -172q-287 -251 -415 -647q-80 -232 -80 -426z" />
<glyph unicode="&#xd9;" horiz-adv-x="2224" d="M78 18q0 99 24 240q47 282 187 623q285 732 672 1271q65 91 141 177q59 65 104 65q73 0 92 -22q11 -22 11 -45q-3 -27 -19 -46l-18 -16q-28 -32 -62 -49q-17 -7 -26 -27q-146 -176 -254 -348q-344 -546 -543 -1046q-111 -289 -154 -467q-47 -178 -47 -330q0 -88 21 -162 q27 -92 117 -92q63 0 133 43q389 220 1001 997q624 794 985 1416l80 131l17 22q16 23 53 23q8 0 24 -4q45 -25 45 -56q0 -23 -36 -82q-3 -3 -3 -6q-525 -965 -579 -1071q-394 -755 -598 -1403q-107 -343 -133 -540l-2 -25q0 -15 4 -31q2 -8 2 -18q-3 -14 -19 -14 q-12 0 -26 14t-17 47q3 108 33 278q22 138 60 275q180 630 397 1071q92 187 250 487l141 273l16 37q-462 -648 -720 -973q-394 -499 -703 -762q-275 -233 -442 -233q-23 0 -70 12q-43 11 -82 78q-57 92 -57 288zM1948 2906q0 6 4 12q3 9 12 21q12 12 23 12q59 -12 237 -153 l100 -76q29 -20 29 -45q0 -23 -20 -23q-16 3 -267 160q-118 72 -118 92z" />
<glyph unicode="&#xda;" horiz-adv-x="2224" d="M78 18q0 99 24 240q47 282 187 623q285 732 672 1271q65 91 141 177q59 65 104 65q73 0 92 -22q11 -22 11 -45q-3 -27 -19 -46l-18 -16q-28 -32 -62 -49q-17 -7 -26 -27q-146 -176 -254 -348q-344 -546 -543 -1046q-111 -289 -154 -467q-47 -178 -47 -330q0 -88 21 -162 q27 -92 117 -92q63 0 133 43q389 220 1001 997q624 794 985 1416l80 131l17 22q16 23 53 23q8 0 24 -4q45 -25 45 -56q0 -23 -36 -82q-3 -3 -3 -6q-525 -965 -579 -1071q-394 -755 -598 -1403q-107 -343 -133 -540l-2 -25q0 -15 4 -31q2 -8 2 -18q-3 -14 -19 -14 q-12 0 -26 14t-17 47q3 108 33 278q22 138 60 275q180 630 397 1071q92 187 250 487l141 273l16 37q-462 -648 -720 -973q-394 -499 -703 -762q-275 -233 -442 -233q-23 0 -70 12q-43 11 -82 78q-57 92 -57 288zM1851 2634q0 13 9 28q16 10 90 43q258 120 321 123 q12 -4 19 -16q10 -13 10 -25q0 -25 -45 -41q-336 -119 -389 -131q-15 3 -15 19z" />
<glyph unicode="&#xdb;" horiz-adv-x="2224" d="M78 18q0 99 24 240q47 282 187 623q285 732 672 1271q65 91 141 177q59 65 104 65q73 0 92 -22q11 -22 11 -45q-3 -27 -19 -46l-18 -16q-28 -32 -62 -49q-17 -7 -26 -27q-146 -176 -254 -348q-344 -546 -543 -1046q-111 -289 -154 -467q-47 -178 -47 -330q0 -88 21 -162 q27 -92 117 -92q63 0 133 43q389 220 1001 997q624 794 985 1416l80 131l17 22q16 23 53 23q8 0 24 -4q45 -25 45 -56q0 -23 -36 -82q-3 -3 -3 -6q-525 -965 -579 -1071q-394 -755 -598 -1403q-107 -343 -133 -540l-2 -25q0 -15 4 -31q2 -8 2 -18q-3 -14 -19 -14 q-12 0 -26 14t-17 47q3 108 33 278q22 138 60 275q180 630 397 1071q92 187 250 487l141 273l16 37q-462 -648 -720 -973q-394 -499 -703 -762q-275 -233 -442 -233q-23 0 -70 12q-43 11 -82 78q-57 92 -57 288zM1931 2707q0 18 15 27q66 44 149 135l98 97q30 30 62 30 q39 0 39 -49q0 -7 -4 -27q-6 -13 -9 -26q-6 -15 -6 -23q-30 -95 -30 -137l4 -35q0 -25 -15 -28h-6q-35 8 -35 63q0 46 9 92q4 28 4 60q-11 -11 -27 -23q-21 -16 -68 -72q-100 -112 -143 -112q-37 0 -37 28z" />
<glyph unicode="&#xdc;" horiz-adv-x="2224" d="M78 18q0 99 24 240q47 282 187 623q285 732 672 1271q65 91 141 177q59 65 104 65q73 0 92 -22q11 -22 11 -45q-3 -27 -19 -46l-18 -16q-28 -32 -62 -49q-17 -7 -26 -27q-146 -176 -254 -348q-344 -546 -543 -1046q-111 -289 -154 -467q-47 -178 -47 -330q0 -88 21 -162 q27 -92 117 -92q63 0 133 43q389 220 1001 997q624 794 985 1416l80 131l17 22q16 23 53 23q8 0 24 -4q45 -25 45 -56q0 -23 -36 -82q-3 -3 -3 -6q-525 -965 -579 -1071q-394 -755 -598 -1403q-107 -343 -133 -540l-2 -25q0 -15 4 -31q2 -8 2 -18q-3 -14 -19 -14 q-12 0 -26 14t-17 47q3 108 33 278q22 138 60 275q180 630 397 1071q92 187 250 487l141 273l16 37q-462 -648 -720 -973q-394 -499 -703 -762q-275 -233 -442 -233q-23 0 -70 12q-43 11 -82 78q-57 92 -57 288zM1939 2861q6 43 29 88q44 86 105 86q57 0 57 -72 q0 -50 -33 -86q-71 -77 -115 -77q-40 0 -43 61zM2255 2882q0 25 16 57q15 30 39 51q28 24 60 27q40 0 61 -27q12 -15 12 -35q0 -12 -6 -30q-66 -138 -110 -138q-28 0 -50 31t-22 64z" />
<glyph unicode="&#xdd;" horiz-adv-x="1609" d="M49 721l2 43q30 336 279 840q111 227 286 491q158 237 283 365q88 94 143 94q18 0 41 -10q37 -18 37 -58q0 -13 -6 -28q-27 -58 -41 -58q-10 0 -16 35q-84 -72 -226 -276q-229 -334 -364 -596q-181 -345 -258 -615q-39 -127 -39 -219q0 -45 4 -65q9 -70 68 -70q6 0 30 4 q146 35 375 233q190 163 340 330q236 253 739 869l29 34q24 31 127 172q159 234 207 234q31 0 49 -21q10 -10 10 -22q0 -2 -4 -14q-3 -5 -19 -32.5t-24 -43.5q-8 -15 -24 -42.5t-21 -35.5q-115 -186 -186 -309l-92 -166q-341 -608 -754 -1460q-226 -474 -410 -922 q-145 -359 -145 -449q0 -28 2 -34q4 -12 4 -21q0 -20 -29 -20q-20 0 -36 16q-23 23 -23 86q0 92 109 385q142 387 387 932q326 735 733 1452l2 4q5 8 14 31q-11 -4 -198 -228l-246 -290q-460 -537 -780 -717q-109 -62 -191 -62q-55 0 -94 33q-74 62 -74 201zM1548 2796 q0 15 8 28q13 8 91 43q258 120 321 123q12 -4 19 -16q10 -13 10 -25q0 -25 -45 -41q-336 -119 -389 -131q-15 3 -15 19z" />
<glyph unicode="&#xde;" horiz-adv-x="1282" d="M-1024 -760q0 26 8 47q56 237 144 465q44 112 167 377q50 82 132 305q31 69 59 164q7 22 21.5 64t19.5 59q6 12 6 22q0 17 -10 29q-33 55 -41 102q-6 44 -6 111q3 88 20 102q2 5 17 5q12 0 12 -15l-2 -8q-6 -43 -6 -84q0 -108 45 -178q370 906 641 1421q122 218 151 254 q15 12 35 12q39 0 39 -45q-9 -29 -92 -196q-59 -126 -76 -156q-428 -857 -616 -1306l-2 -9q-11 -26 -11 -37q15 12 21 27l6 8q147 227 287 404q213 270 450 477q230 199 385 199q136 0 183 -136q16 -53 16 -102q0 -61 -14 -127q-44 -179 -154 -358q-177 -293 -467 -457 q-167 -92 -348 -92q-132 0 -260 43q-35 8 -72 31q-6 6 -14 6q-10 0 -19 -15q-102 -181 -180 -389q-134 -340 -313 -887q-26 -81 -58 -151q-18 -35 -41 -35q-63 0 -63 49zM-283 731q0 -7 11 -10q22 -16 47 -25q80 -30 164 -30h26q183 0 320 73q244 130 389 324 q147 194 221 459q12 46 12 92q0 125 -53 155q-30 15 -66 15q-97 0 -180 -47q-90 -51 -239 -185q-346 -322 -625 -772q-2 -3 -6 -10t-6 -10q0 -1 -11 -17q-4 -8 -4 -12z" />
<glyph unicode="&#xdf;" horiz-adv-x="1230" d="M-377 -2q0 139 45 258q200 554 479 911q154 189 373 320q163 94 268 94q61 0 99 -35q35 -35 35 -98q0 -268 -629 -719q-23 -10 -29 -29l98 5l60 -3q125 -6 225 -127q9 -12 21 -18l24 2q53 18 170 37q154 22 205 22q19 -4 23 -10q-3 -6 -41 -12q-7 0 -107 -14 q-183 -36 -223 -50q-35 -8 -35 -28q0 -7 4 -19q4 -28 4 -55q0 -31 -16 -90q-91 -251 -342 -354q-61 -25 -117 -25q-19 0 -65 6q-47 6 -86 51q-27 27 -27 72q0 21 6 45q68 201 533 385q28 9 28 17q0 7 -22 32l-2 2q-53 56 -113 68q-52 12 -133 12q-38 0 -137 -12 q-39 0 -39 45q0 16 14 27l119 88q251 180 369 301q192 192 192 338q0 67 -66 67q-93 -6 -184 -57q-575 -314 -850 -1243q-37 -124 -37 -219l2 -45q0 -53 39 -62q9 0 9 -8q-1 -4 -5 -8q-2 -7 -20 -19q-17 -10 -39 -10q-80 0 -80 164zM90 88q0 -84 123 -84q41 0 90 19 q127 49 211 139q129 135 129 289q0 27 -12 45q-65 -17 -180 -74q-213 -112 -279 -178q-82 -79 -82 -156z" />
<glyph unicode="&#xe0;" horiz-adv-x="972" d="M-205 408q0 16 10 36q38 129 158 234q52 43 117 43q16 0 41 -2q35 -3 69 -51l5 -4q6 0 14 8q11 8 24 8q21 0 31 -10q12 -12 12 -25q0 -17 -28 -72q-72 -132 -72 -196q0 -51 51 -51q55 0 148 34q144 54 295 136q139 73 196 112q4 4 13 4q16 0 16 -22q0 -6 -6 -12 q-92 -75 -217 -146q-135 -78 -275 -131q-104 -43 -184 -43q-25 0 -45 2q-33 3 -57 49q-13 33 -13 64q0 69 39 143q-36 -25 -137 -84q-122 -70 -152 -70q-16 0 -36 13q-17 14 -17 33zM-92 1026q0 6 14 27q15 18 25 18q58 -13 266 -186q23 -23 23 -35q0 -20 -25 -23 q-18 3 -27 13q-265 158 -272 176q-4 8 -4 10zM-78 494q0 -9 4 -9q8 0 29 15q119 71 174 112q-21 27 -47 27q-9 0 -21 -4q-83 -36 -139 -131v-10z" />
<glyph unicode="&#xe1;" horiz-adv-x="972" d="M-205 408q0 16 10 36q38 129 158 234q52 43 117 43q16 0 41 -2q35 -3 69 -51l5 -4q6 0 14 8q11 8 24 8q21 0 31 -10q12 -12 12 -25q0 -17 -28 -72q-72 -132 -72 -196q0 -51 51 -51q55 0 148 34q144 54 295 136q139 73 196 112q4 4 13 4q16 0 16 -22q0 -6 -6 -12 q-92 -75 -217 -146q-135 -78 -275 -131q-104 -43 -184 -43q-25 0 -45 2q-33 3 -57 49q-13 33 -13 64q0 69 39 143q-36 -25 -137 -84q-122 -70 -152 -70q-16 0 -36 13q-17 14 -17 33zM-78 494q0 -9 4 -9q8 0 29 15q119 71 174 112q-21 27 -47 27q-9 0 -21 -4 q-83 -36 -139 -131v-10zM-39 856q0 16 105 96q138 117 161 117l19 2q19 0 30 -14q15 -12 15 -25q0 -8 -10 -18q-24 -16 -267 -170q-14 -11 -26 -13q-27 0 -27 25z" />
<glyph unicode="&#xe2;" horiz-adv-x="972" d="M-205 408q0 16 10 36q38 129 158 234q52 43 117 43q16 0 41 -2q35 -3 69 -51l5 -4q6 0 14 8q11 8 24 8q21 0 31 -10q12 -12 12 -25q0 -17 -28 -72q-72 -132 -72 -196q0 -51 51 -51q55 0 148 34q144 54 295 136q139 73 196 112q4 4 13 4q16 0 16 -22q0 -6 -6 -12 q-92 -75 -217 -146q-135 -78 -275 -131q-104 -43 -184 -43q-25 0 -45 2q-33 3 -57 49q-13 33 -13 64q0 69 39 143q-36 -25 -137 -84q-122 -70 -152 -70q-16 0 -36 13q-17 14 -17 33zM-78 494q0 -9 4 -9q8 0 29 15q119 71 174 112q-21 27 -47 27q-9 0 -21 -4 q-83 -36 -139 -131v-10zM57 899q0 6 11 21q50 33 112 98l80 82q24 14 39 14q4 0 12 -4q17 -14 17 -33l-4 -18q-33 -95 -33 -148l2 -26q0 -9 -14 -15q-9 0 -11 2q-16 13 -16 48q0 32 6 67q2 10 2 45l-45 -47q-96 -108 -133 -108q-25 0 -25 22z" />
<glyph unicode="&#xe3;" horiz-adv-x="972" d="M-205 408q0 16 10 36q38 129 158 234q52 43 117 43q16 0 41 -2q35 -3 69 -51l5 -4q6 0 14 8q11 8 24 8q21 0 31 -10q12 -12 12 -25q0 -17 -28 -72q-72 -132 -72 -196q0 -51 51 -51q55 0 148 34q144 54 295 136q139 73 196 112q4 4 13 4q16 0 16 -22q0 -6 -6 -12 q-92 -75 -217 -146q-135 -78 -275 -131q-104 -43 -184 -43q-25 0 -45 2q-33 3 -57 49q-13 33 -13 64q0 69 39 143q-36 -25 -137 -84q-122 -70 -152 -70q-16 0 -36 13q-17 14 -17 33zM-78 494q0 -9 4 -9q8 0 29 15q119 71 174 112q-21 27 -47 27q-9 0 -21 -4 q-83 -36 -139 -131v-10zM10 926q0 63 140 104q61 -3 73 -96q3 -27 19 -27t92 31q71 30 90 49q10 10 20 10q7 0 13 -6q8 -5 8 -12q0 -6 -8 -18q-45 -42 -109 -76q-100 -47 -135 -47q-56 0 -68 92q-10 26 -16 26q-10 0 -20 -10q-27 -11 -37 -24q-12 -21 -35 -21q-27 0 -27 25z " />
<glyph unicode="&#xe4;" horiz-adv-x="972" d="M-205 408q0 16 10 36q38 129 158 234q52 43 117 43q16 0 41 -2q35 -3 69 -51l5 -4q6 0 14 8q11 8 24 8q21 0 31 -10q12 -12 12 -25q0 -17 -28 -72q-72 -132 -72 -196q0 -51 51 -51q55 0 148 34q144 54 295 136q139 73 196 112q4 4 13 4q16 0 16 -22q0 -6 -6 -12 q-92 -75 -217 -146q-135 -78 -275 -131q-104 -43 -184 -43q-25 0 -45 2q-33 3 -57 49q-13 33 -13 64q0 69 39 143q-36 -25 -137 -84q-122 -70 -152 -70q-16 0 -36 13q-17 14 -17 33zM-78 494q0 -9 4 -9q8 0 29 15q119 71 174 112q-21 27 -47 27q-9 0 -21 -4 q-83 -36 -139 -131v-10zM6 901q15 81 64 115q17 10 30 10q43 0 43 -51q0 -35 -24 -62q-52 -55 -84 -55q-29 0 -29 43zM231 915q0 15 11 41q15 26 28 39q19 16 45 19q28 0 43 -21q9 -13 9 -24q0 -1 -5 -21q-46 -98 -75 -98q-27 0 -41 20q-15 21 -15 45z" />
<glyph unicode="&#xe5;" horiz-adv-x="972" d="M-205 408q0 16 10 36q38 129 158 234q52 43 117 43q16 0 41 -2q35 -3 69 -51l5 -4q6 0 14 8q11 8 24 8q21 0 31 -10q12 -12 12 -25q0 -17 -28 -72q-72 -132 -72 -196q0 -51 51 -51q55 0 148 34q144 54 295 136q139 73 196 112q4 4 13 4q16 0 16 -22q0 -6 -6 -12 q-92 -75 -217 -146q-135 -78 -275 -131q-104 -43 -184 -43q-25 0 -45 2q-33 3 -57 49q-13 33 -13 64q0 69 39 143q-36 -25 -137 -84q-122 -70 -152 -70q-16 0 -36 13q-17 14 -17 33zM-78 494q0 -9 4 -9q8 0 29 15q119 71 174 112q-21 27 -47 27q-9 0 -21 -4 q-83 -36 -139 -131v-10zM92 915q21 114 78 183q7 10 14 10l15 -2q16 0 34 6t35 6q14 0 25 -8q13 -10 16 -25q6 -12 6 -28q-3 -100 -69 -172q-39 -51 -94 -51q-60 0 -60 81zM139 913q0 -16 13 -26h18l12 6l2 4q39 26 62 64q30 50 30 92q0 26 -18 26l-6 -2q-98 -28 -113 -164z " />
<glyph unicode="&#xe6;" horiz-adv-x="1159" d="M-180 410q0 10 2 16l6 18q55 143 158 232q52 43 116 43q16 0 41 -2q38 -3 74 -53q9 0 29 14h6q16 0 33 -10q73 64 172 110q32 13 53 13q13 0 47 -15q33 -17 33 -69q0 -25 -17 -52q-36 -58 -67 -77q-195 -125 -244 -125q-20 0 -39 8q-30 -53 -30 -92q0 -15 2 -29 q3 -26 36 -49q35 -27 93 -27q129 0 387 129q235 119 360 215l8 2q15 0 15 -12q0 -5 -7 -12q-134 -117 -352 -236q-251 -139 -436 -151q-77 0 -121 41q-57 57 -57 141q0 47 39 133q-36 -25 -137 -84q-119 -70 -152 -70q-19 0 -35 13t-16 37zM-55 492q0 -9 6 -9q3 0 22 13 q122 72 179 114q-18 27 -48 27q-38 0 -100 -62q-59 -59 -59 -83zM270 528q61 19 133 76q77 62 86 92q-108 -29 -219 -168z" />
<glyph unicode="&#xe7;" horiz-adv-x="765" d="M-238 -80q0 6 7 10q4 4 6 4h4l8 -4q28 -22 63 -22q32 0 52 10q32 14 32 49l-4 17q-8 32 -39 32q-8 0 -53 -10h-10q-18 0 -25 10q-6 9 -6 17q0 5 13 24q10 18 24 31l55 62q-41 12 -47 14q-57 23 -57 133q0 123 61 248q59 120 148 219q81 84 141 84q13 0 49 -8 q40 -9 62 -76q6 -21 6 -41q0 -37 -29 -74q-8 -8 -22 -8q-28 0 -39 33q-2 9 -25 53q-22 -3 -39 -20q-84 -72 -141 -183q-70 -131 -70 -231q0 -82 52 -82q39 0 92 20q148 50 327 162q184 117 293 213q9 6 21 6q7 -2 10 -8q0 -8 -12 -20q-116 -119 -293 -242 q-180 -125 -338 -178q-61 -16 -98 -19q-7 -7 -13 -16l-24 -31q-8 -13 -13 -24q5 -8 19 -8q39 0 57 -27q25 -36 25 -74q0 -28 -19 -53q-17 -25 -49 -35q-33 -10 -57 -10q-39 0 -76 18q-29 10 -29 35z" />
<glyph unicode="&#xe8;" horiz-adv-x="866" d="M-160 403q0 31 17 97q84 196 288 284q49 15 93 15q84 0 84 -90q0 -74 -86 -148q-172 -117 -238 -117q-28 0 -45 17q-8 -33 -8 -66q0 -24 6 -39q30 -65 106 -65q150 0 381 108q232 108 365 209q8 4 10 4q13 0 16 -18q0 -6 -6 -12q-129 -123 -358 -242q-231 -120 -432 -141 q-123 9 -164 84q-26 54 -29 120zM0 528q67 24 131 76q80 61 86 94q-122 -43 -217 -170zM49 1102q0 5 14 26q16 19 25 19q59 -14 264 -186q25 -22 25 -35q0 -20 -27 -23q-16 4 -24 12q-265 158 -273 177q-4 8 -4 10z" />
<glyph unicode="&#xe9;" horiz-adv-x="866" d="M-160 403q0 31 17 97q84 196 288 284q49 15 93 15q84 0 84 -90q0 -74 -86 -148q-172 -117 -238 -117q-28 0 -45 17q-8 -33 -8 -66q0 -24 6 -39q30 -65 106 -65q150 0 381 108q232 108 365 209q8 4 10 4q13 0 16 -18q0 -6 -6 -12q-129 -123 -358 -242q-231 -120 -432 -141 q-123 9 -164 84q-26 54 -29 120zM0 528q67 24 131 76q80 61 86 94q-122 -43 -217 -170zM80 920q0 17 104 96q135 117 162 117l16 2q21 0 33 -15q13 -13 13 -24q0 -10 -9 -19q-2 -1 -31 -19.5t-95 -61t-140 -89.5q-12 -9 -27 -12q-26 0 -26 25z" />
<glyph unicode="&#xea;" horiz-adv-x="866" d="M-160 403q0 31 17 97q84 196 288 284q49 15 93 15q84 0 84 -90q0 -74 -86 -148q-172 -117 -238 -117q-28 0 -45 17q-8 -33 -8 -66q0 -24 6 -39q30 -65 106 -65q150 0 381 108q232 108 365 209q8 4 10 4q13 0 16 -18q0 -6 -6 -12q-129 -123 -358 -242q-231 -120 -432 -141 q-123 9 -164 84q-26 54 -29 120zM0 528q67 24 131 76q80 61 86 94q-122 -43 -217 -170zM111 924q0 8 12 20q44 29 113 98l79 82q26 15 39 15q5 0 13 -4q16 -13 16 -33l-4 -19q-33 -95 -33 -147l2 -27q0 -8 -14 -14q-8 0 -12 2q-15 12 -15 47q0 34 6 68q2 10 2 45l-47 -47 q-93 -109 -133 -109q-24 0 -24 23z" />
<glyph unicode="&#xeb;" horiz-adv-x="866" d="M-160 403q0 31 17 97q84 196 288 284q49 15 93 15q84 0 84 -90q0 -74 -86 -148q-172 -117 -238 -117q-28 0 -45 17q-8 -33 -8 -66q0 -24 6 -39q30 -65 106 -65q150 0 381 108q232 108 365 209q8 4 10 4q13 0 16 -18q0 -6 -6 -12q-129 -123 -358 -242q-231 -120 -432 -141 q-123 9 -164 84q-26 54 -29 120zM0 528q67 24 131 76q80 61 86 94q-122 -43 -217 -170zM55 967q15 77 64 114q22 11 31 11q45 0 45 -52q0 -34 -27 -61q-49 -55 -82 -55q-31 0 -31 43zM283 981q0 23 10 41q16 28 29 39q18 15 43 18q32 0 43 -20q10 -10 10 -25q0 -8 -6 -20 q-44 -99 -74 -99q-26 0 -41 21q-14 20 -14 45z" />
<glyph unicode="&#xec;" horiz-adv-x="759" d="M-258 293q6 105 70 221q63 118 131 188q40 37 69 37q45 0 45 -43q0 -19 -53 -102l-119 -188q-32 -51 -32 -97q0 -51 49 -51q83 0 301 107q177 82 274 145q11 7 32.5 21t31.5 20l94 61q14 0 20 -6q0 -13 -8 -18q-122 -113 -350 -236q-223 -120 -391 -162q-16 -4 -45 -4 q-116 0 -119 107zM-23 1020q0 9 15 27t24 18q56 -13 265 -186q22 -19 22 -35q0 -20 -24 -23q-16 4 -25 13q-268 158 -272 176q-5 5 -5 10z" />
<glyph unicode="&#xed;" horiz-adv-x="759" d="M-258 293q6 105 70 221q63 118 131 188q40 37 69 37q45 0 45 -43q0 -19 -53 -102l-119 -188q-32 -51 -32 -97q0 -51 49 -51q83 0 301 107q177 82 274 145q11 7 32.5 21t31.5 20l94 61q14 0 20 -6q0 -13 -8 -18q-122 -113 -350 -236q-223 -120 -391 -162q-16 -4 -45 -4 q-116 0 -119 107zM-2 924q0 16 102 96q138 117 164 117l17 2q20 0 32 -15q13 -13 13 -24q0 -10 -9 -19q-2 -1 -31 -19.5t-95 -61t-140 -89.5q-11 -8 -26 -12q-27 0 -27 25z" />
<glyph unicode="&#xee;" horiz-adv-x="759" d="M-258 293q6 105 70 221q63 118 131 188q40 37 69 37q45 0 45 -43q0 -19 -53 -102l-119 -188q-32 -51 -32 -97q0 -51 49 -51q83 0 301 107q177 82 274 145q11 7 32.5 21t31.5 20l94 61q14 0 20 -6q0 -13 -8 -18q-122 -113 -350 -236q-223 -120 -391 -162q-16 -4 -45 -4 q-116 0 -119 107zM12 930q0 5 11 20q48 31 112 99l80 81q26 15 39 15q8 0 12 -4q17 -14 17 -33l-4 -18q-33 -95 -33 -148q0 -12 2 -16v-11q0 -8 -15 -14q-8 0 -10 2q-16 13 -16 47t6 68q2 10 2 45q-2 -3 -6.5 -7.5t-5.5 -6.5q-6 -3 -33 -33q-97 -109 -133 -109q-25 0 -25 23 z" />
<glyph unicode="&#xef;" horiz-adv-x="759" d="M-258 293q6 105 70 221q63 118 131 188q40 37 69 37q45 0 45 -43q0 -19 -53 -102l-119 -188q-32 -51 -32 -97q0 -51 49 -51q83 0 301 107q177 82 274 145q11 7 32.5 21t31.5 20l94 61q14 0 20 -6q0 -13 -8 -18q-122 -113 -350 -236q-223 -120 -391 -162q-16 -4 -45 -4 q-116 0 -119 107zM-37 938q15 81 64 115q17 10 30 10q43 0 43 -51q0 -35 -24 -62q-52 -55 -82 -55q-31 0 -31 43zM188 952q0 18 13 41q10 24 28 39q16 16 43 19q28 0 43 -21q9 -9 9 -24q0 -1 -5 -21q-46 -98 -75 -98q-25 0 -39 20q-17 24 -17 45z" />
<glyph unicode="&#xf0;" horiz-adv-x="897" d="M-229 334q0 106 139 301q73 103 174 172q44 33 90 33q57 0 117 -60l61 86q13 17 36.5 49.5t29.5 40.5q-8 0 -22 -1t-19 -1q-62 -4 -94 -4q-125 0 -144 19q-12 9 -12 26q3 33 45 39q47 8 100 8h201q37 56 72 117q130 240 323 463q22 31 52 31q28 0 43 -15q14 -14 14 -28 q0 -25 -39 -58q-13 -10 -27 -28q-171 -219 -331 -484h135q133 0 133 -45q-9 -37 -35 -37q-15 3 -168 3q-63 0 -113 -3q-245 -420 -442 -931q-26 -67 -45 -146q-18 -37 -18 -90q0 -15 4 -43v-4q0 -16 -29 -16q-41 0 -41 61q0 39 19 123q81 287 208 547q76 158 76 182 q0 10 -4 18q-32 -37 -82 -100q-64 -81 -139 -166q-126 -141 -197 -141q-29 0 -51 22q-20 20 -20 60zM-119 356q140 112 228 236q31 40 90 110l-25 3q-11 0 -41 -23q-162 -125 -244 -293z" />
<glyph unicode="&#xf1;" horiz-adv-x="1101" d="M-319 258q0 35 18 82q90 215 229 397q37 46 68 49q27 0 43 -22q10 -17 10 -29l-2 -12q-43 -102 -98 -186l-49 -86q-14 -19 -17 -56q65 58 135 125l136 125q103 92 135 92q20 0 47 -18q26 -20 29 -66l-5 -116q0 -42 7 -117q9 -107 118 -107q39 0 111 29q111 48 305 215 q59 53 70 53q12 0 12 -12q0 -2 -4 -10q-199 -230 -391 -320q-64 -30 -123 -30q-51 0 -92 20q-73 42 -88 119q-11 56 -11 121v32l5 84l2 13q-72 -49 -224 -209q-77 -80 -166 -166q-32 -32 -88 -51q-19 -8 -45 -8q-25 0 -49 12q-28 22 -28 53zM119 1012q0 63 139 104 q62 -3 74 -96q3 -27 18 -27q17 0 90 31q73 30 92 49q10 10 21 10q6 0 12 -6q8 -5 8 -12q0 -8 -10 -18q-41 -42 -106 -76q-100 -47 -135 -47q-56 0 -68 92q-10 26 -16 26q-14 0 -21 -10q-27 -11 -37 -24q-12 -21 -37 -21q-24 0 -24 25z" />
<glyph unicode="&#xf2;" horiz-adv-x="804" d="M-262 279q0 105 88 260q120 211 237 211q95 0 95 -105q0 -58 -25 -110q74 -35 162 -35q37 0 74 6q171 36 299 100q8 4 12 4q18 0 18 -16q0 -2 -4 -14q-2 -6 -143 -66q-155 -63 -295 -63q-88 0 -150 26q-28 -63 -63 -119q-47 -79 -98 -133q-57 -60 -113 -63q-94 3 -94 117 zM-176 281q0 -29 18 -29q15 0 33 12q108 83 168 242q-32 22 -49 84q-31 -22 -125 -191q-45 -83 -45 -118zM-8 1044q0 10 14 27q16 19 25 19q53 -12 264 -187q24 -21 24 -35q0 -19 -26 -22q-17 4 -25 12q-269 160 -272 176q-4 8 -4 10zM55 637q0 -32 21 -53q10 42 10 67 q-3 15 -14 15q-17 0 -17 -29z" />
<glyph unicode="&#xf3;" horiz-adv-x="804" d="M-262 279q0 105 88 260q120 211 237 211q95 0 95 -105q0 -58 -25 -110q74 -35 162 -35q37 0 74 6q171 36 299 100q8 4 12 4q18 0 18 -16q0 -2 -4 -14q-2 -6 -143 -66q-155 -63 -295 -63q-88 0 -150 26q-28 -63 -63 -119q-47 -79 -98 -133q-57 -60 -113 -63q-94 3 -94 117 zM-176 281q0 -29 18 -29q15 0 33 12q108 83 168 242q-32 22 -49 84q-31 -22 -125 -191q-45 -83 -45 -118zM12 924q0 16 103 96q138 117 164 117l16 2q21 0 33 -15q12 -12 12 -24q0 -11 -8 -19q-2 -1 -31 -19.5t-95 -61t-140 -89.5q-10 -8 -27 -12q-27 0 -27 25zM55 637 q0 -32 21 -53q10 42 10 67q-3 15 -14 15q-17 0 -17 -29z" />
<glyph unicode="&#xf4;" horiz-adv-x="804" d="M-262 279q0 105 88 260q120 211 237 211q95 0 95 -105q0 -58 -25 -110q74 -35 162 -35q37 0 74 6q171 36 299 100q8 4 12 4q18 0 18 -16q0 -2 -4 -14q-2 -6 -143 -66q-155 -63 -295 -63q-88 0 -150 26q-28 -63 -63 -119q-47 -79 -98 -133q-57 -60 -113 -63q-94 3 -94 117 zM-176 281q0 -29 18 -29q15 0 33 12q108 83 168 242q-32 22 -49 84q-31 -22 -125 -191q-45 -83 -45 -118zM10 881q0 7 13 20q41 27 112 98l80 82q26 15 39 15q4 0 12 -4q15 -12 15 -33l-2 -19q-33 -95 -33 -147l2 -27q0 -8 -15 -14q-8 0 -12 2q-14 11 -14 47q0 33 6 68 q2 10 2 45l-47 -47q-93 -109 -133 -109q-25 0 -25 23zM55 637q0 -32 21 -53q10 42 10 67q-3 15 -14 15q-17 0 -17 -29z" />
<glyph unicode="&#xf5;" horiz-adv-x="804" d="M-262 279q0 105 88 260q120 211 237 211q95 0 95 -105q0 -58 -25 -110q74 -35 162 -35q37 0 74 6q171 36 299 100q8 4 12 4q18 0 18 -16q0 -2 -4 -14q-2 -6 -143 -66q-155 -63 -295 -63q-88 0 -150 26q-28 -63 -63 -119q-47 -79 -98 -133q-57 -60 -113 -63q-94 3 -94 117 zM-176 281q0 -29 18 -29q15 0 33 12q108 83 168 242q-32 22 -49 84q-31 -22 -125 -191q-45 -83 -45 -118zM-6 942q0 65 139 105q60 -3 72 -97q3 -26 20 -26q19 0 90 30t91 50q10 10 22 10q6 0 12 -6t6 -13q0 -10 -8 -18q-50 -46 -108 -76q-96 -47 -133 -47q-55 0 -70 92 q-7 27 -16 27q-11 0 -21 -10q-29 -13 -35 -25q-11 -20 -37 -20q-24 0 -24 24zM55 637q0 -32 21 -53q10 42 10 67q-3 15 -14 15q-17 0 -17 -29z" />
<glyph unicode="&#xf6;" horiz-adv-x="804" d="M-262 279q0 105 88 260q120 211 237 211q95 0 95 -105q0 -58 -25 -110q74 -35 162 -35q37 0 74 6q171 36 299 100q8 4 12 4q18 0 18 -16q0 -2 -4 -14q-2 -6 -143 -66q-155 -63 -295 -63q-88 0 -150 26q-28 -63 -63 -119q-47 -79 -98 -133q-57 -60 -113 -63q-94 3 -94 117 zM-176 281q0 -29 18 -29q15 0 33 12q108 83 168 242q-32 22 -49 84q-31 -22 -125 -191q-45 -83 -45 -118zM-6 936q15 79 63 115q20 10 31 10q43 0 43 -51q0 -34 -25 -62q-49 -55 -81 -55q-31 0 -31 43zM55 637q0 -32 21 -53q10 42 10 67q-3 15 -14 15q-17 0 -17 -29z M221 950q0 23 10 41q16 28 29 39q19 16 43 19q31 0 43 -21q10 -10 10 -24q0 -9 -6 -21q-43 -98 -74 -98q-26 0 -40 20q-15 21 -15 45z" />
<glyph unicode="&#xf7;" horiz-adv-x="1132" d="M213 795q0 28 14 36q90 23 281 23q267 0 381 -51q22 -11 22 -23q0 -8 -2 -12q-4 -8 -6 -10q-4 -4 -8 -4q-6 0 -18 4q-80 35 -226 35q-126 0 -289 -17q-24 -6 -100 -6h-18q-31 0 -31 25zM389 526q9 74 66 74q51 0 51 -49q0 -20 -12 -35q-24 -35 -58 -35q-16 0 -20 4 q-27 15 -27 41zM547 1059q0 19 10 39q13 19 29 30q16 13 35 13q28 0 47 -19q20 -17 20 -47q0 -20 -10 -37q-9 -13 -31 -28q-22 -11 -39 -11q-26 0 -43 17q-18 15 -18 43z" />
<glyph unicode="&#xf8;" horiz-adv-x="804" d="M-348 115v2q0 19 53 96q-10 30 -10 66q0 105 88 260q120 211 237 211q49 0 72 -29q12 14 33 35q17 12 33 32q40 49 61 52q10 0 19 -6q8 -8 8 -17q0 -6 -4 -10q-51 -51 -127 -145v-17q0 -62 -25 -110q81 -35 162 -35q36 0 74 6q171 36 299 100q8 4 12 4q18 0 18 -16 l-4 -12q-3 -9 -143 -68q-152 -63 -295 -63q-88 0 -150 26q-28 -63 -63 -119q-47 -79 -98 -133q-57 -60 -113 -63q-25 0 -45 10q-18 -25 -45 -70q-10 -10 -18 -10h-7q-19 0 -22 23zM-201 252q12 0 33 12q108 83 168 242l-6 4q-22 -28 -27 -35q-121 -154 -168 -223zM-201 344 q19 26 61.5 81.5t53.5 70.5q8 12 24 33t23 30q-2 4 -3.5 8.5t-3.5 11.5t-3 11q-35 -26 -125 -191q-26 -51 -27 -55zM12 625q15 18 29 32q-6 9 -12 9q-17 0 -17 -29v-12z" />
<glyph unicode="&#xf9;" horiz-adv-x="1159" d="M-352 190q0 139 159 394q54 87 84 121q33 36 74 36q22 0 37 -12q25 -19 25 -57q0 -11 -9 -29l-32 -39q-33 -33 -88 -119q-129 -188 -129 -241q0 -35 30 -35q84 0 361 309q87 94 104 109l17 14q43 43 67 43q12 0 21 -6q39 -26 39 -72q0 -22 -35 -125q-64 -155 -64 -219 q0 -30 21 -33q201 15 661 371q15 12 25 12q12 -3 12 -16q0 -20 -233 -201q-309 -245 -494 -245h-12q-79 15 -82 118q0 115 59 275q-26 -28 -98 -111q-97 -116 -209 -223q-117 -110 -211 -119q-100 12 -100 100zM86 1124q0 10 14 27q15 18 25 18q55 -13 264 -186 q23 -20 23 -35q0 -19 -25 -22q-17 4 -25 12q-269 160 -272 176q-4 8 -4 10z" />
<glyph unicode="&#xfa;" horiz-adv-x="1159" d="M-352 190q0 139 159 394q54 87 84 121q33 36 74 36q22 0 37 -12q25 -19 25 -57q0 -11 -9 -29l-32 -39q-33 -33 -88 -119q-129 -188 -129 -241q0 -35 30 -35q84 0 361 309q87 94 104 109l17 14q43 43 67 43q12 0 21 -6q39 -26 39 -72q0 -22 -35 -125q-64 -155 -64 -219 q0 -30 21 -33q201 15 661 371q15 12 25 12q12 -3 12 -16q0 -20 -233 -201q-309 -245 -494 -245h-12q-79 15 -82 118q0 115 59 275q-26 -28 -98 -111q-97 -116 -209 -223q-117 -110 -211 -119q-100 12 -100 100zM174 946q0 16 102 96q138 117 164 117l17 2q21 0 32 -14 q13 -13 13 -25q0 -8 -10 -18q-24 -16 -267 -170q-12 -9 -26 -12q-25 0 -25 24z" />
<glyph unicode="&#xfb;" horiz-adv-x="1159" d="M-352 190q0 139 159 394q54 87 84 121q33 36 74 36q22 0 37 -12q25 -19 25 -57q0 -11 -9 -29l-32 -39q-33 -33 -88 -119q-129 -188 -129 -241q0 -35 30 -35q84 0 361 309q87 94 104 109l17 14q43 43 67 43q12 0 21 -6q39 -26 39 -72q0 -22 -35 -125q-64 -155 -64 -219 q0 -30 21 -33q201 15 661 371q15 12 25 12q12 -3 12 -16q0 -20 -233 -201q-309 -245 -494 -245h-12q-79 15 -82 118q0 115 59 275q-26 -28 -98 -111q-97 -116 -209 -223q-117 -110 -211 -119q-100 12 -100 100zM166 940q0 9 12 21q47 31 111 98l82 82q21 14 37 14q6 0 14 -4 q14 -11 14 -33l-2 -18q-35 -100 -35 -148l4 -26q0 -8 -14 -15q-8 0 -12 2q-15 12 -15 48q0 27 7 67q0 4 1 19.5t1 25.5l-47 -47q-92 -108 -134 -108q-24 0 -24 22z" />
<glyph unicode="&#xfc;" horiz-adv-x="1159" d="M-352 190q0 139 159 394q54 87 84 121q33 36 74 36q22 0 37 -12q25 -19 25 -57q0 -11 -9 -29l-32 -39q-33 -33 -88 -119q-129 -188 -129 -241q0 -35 30 -35q84 0 361 309q87 94 104 109l17 14q43 43 67 43q12 0 21 -6q39 -26 39 -72q0 -22 -35 -125q-64 -155 -64 -219 q0 -30 21 -33q201 15 661 371q15 12 25 12q12 -3 12 -16q0 -20 -233 -201q-309 -245 -494 -245h-12q-79 15 -82 118q0 115 59 275q-26 -28 -98 -111q-97 -116 -209 -223q-117 -110 -211 -119q-100 12 -100 100zM143 971q15 80 64 114q18 11 31 11q43 0 43 -52q0 -33 -25 -61 q-52 -55 -82 -55q-31 0 -31 43zM369 985q0 20 12 41q10 23 29 39q15 15 43 18q29 0 43 -20q8 -8 8 -25q0 -4 -4 -20q-46 -98 -74 -98q-27 0 -41 20q-16 22 -16 45z" />
<glyph unicode="&#xfd;" horiz-adv-x="1030" d="M-1700 -1028q0 100 66 229q162 291 422 520q257 222 532 412q41 27 59 62l177 313l-5 2l-43 -35q-323 -305 -413 -305q-28 0 -49 18q-31 28 -31 80q0 109 80 248q68 121 137 184q45 39 76 39q30 0 30 -39q0 -26 -40 -84q-105 -134 -168 -294q-7 -18 -7 -46v-18 q96 39 246 166q64 51 266 240q26 26 48 26q5 0 14 -6q8 -3 14 -18q4 -20 4 -25q-16 -43 -114 -221q-64 -114 -70 -146q311 214 643 336l27 6q12 -3 12 -16t-14 -20l-133 -54q-185 -80 -582 -364q-29 -22 -43 -51q-36 -69 -80 -158q-315 -657 -696 -1020q-51 -48 -127 -76 q-53 -20 -109 -20q-113 0 -125 86q-4 32 -4 49zM-1634 -1024q0 -19 2 -39q3 -34 65 -37q106 3 193 90q215 206 364 465q200 333 301 572q-613 -403 -864 -844q-61 -110 -61 -207zM-526 920q0 17 104 96q138 117 162 117l18 2q19 0 31 -15q12 -12 12 -24q0 -11 -8 -19 q-43 -29 -266 -170q-12 -9 -27 -12q-26 0 -26 25z" />
<glyph unicode="&#xfe;" horiz-adv-x="876" d="M-1368 -852q175 465 453 1010q94 178 94 209q0 15 -8 28l-2 8q0 43 20 43q5 0 8 -6q4 -8 6 -10q3 -3 9 -12q25 51 102 188q171 331 295 498q85 135 133 135q29 0 29 -27q0 -8 -13 -24q-164 -221 -364 -576q-19 -32 -21 -41q10 0 31 15l4 6q248 219 371 231 q146 0 158 -137q0 -68 -21 -111q-81 -185 -244 -266q-99 -51 -221 -51q-63 0 -141 16q-6 0 -8 2l-15 5q-8 3 -16 8q-9 3 -12 6q-4 2 -13 2q-33 -11 -45 -47q-308 -587 -520 -1118q-15 -31 -29 -31q-20 0 -20 37v10zM-723 350q0 -9 21 -18q64 -23 120 -23q148 3 248 66 q97 63 168 190q33 61 33 97q0 88 -70 88q-49 0 -110 -37q-217 -123 -402 -344q-8 -8 -8 -19z" />
<glyph unicode="&#xff;" horiz-adv-x="1030" d="M-1700 -1028q0 100 66 229q162 291 422 520q257 222 532 412q41 27 59 62l177 313l-5 2l-43 -35q-323 -305 -413 -305q-28 0 -49 18q-31 28 -31 80q0 109 80 248q68 121 137 184q45 39 76 39q30 0 30 -39q0 -26 -40 -84q-105 -134 -168 -294q-7 -18 -7 -46v-18 q96 39 246 166q64 51 266 240q26 26 48 26q5 0 14 -6q8 -3 14 -18q4 -20 4 -25q-16 -43 -114 -221q-64 -114 -70 -146q311 214 643 336l27 6q12 -3 12 -16t-14 -20l-133 -54q-185 -80 -582 -364q-29 -22 -43 -51q-36 -69 -80 -158q-315 -657 -696 -1020q-51 -48 -127 -76 q-53 -20 -109 -20q-113 0 -125 86q-4 32 -4 49zM-1634 -1024q0 -19 2 -39q3 -34 65 -37q106 3 193 90q215 206 364 465q200 333 301 572q-613 -403 -864 -844q-61 -110 -61 -207zM-580 950q15 81 64 115q17 10 31 10q43 0 43 -51q0 -33 -25 -61q-53 -56 -84 -56 q-29 0 -29 43zM-354 965q0 18 10 41q15 26 29 38q19 16 45 19q28 0 43 -21q8 -12 8 -24q0 -5 -4 -21q-46 -98 -76 -98q-26 0 -41 21q-14 20 -14 45z" />
<glyph unicode="&#x152;" horiz-adv-x="4374" d="M29 -254q0 265 143 670q111 310 270 641q13 23 13 47l-2 20q-11 94 -11 156q0 222 84 463q127 373 379 631q114 114 273 192q154 74 321 74q207 0 359 -137q104 -93 159 -201q86 -177 86 -432q0 -525 -360 -1272q246 261 622 455q215 111 355 151l55 21l-80 12 q-35 4 -141 27q-167 37 -248 127q-51 63 -51 135q0 89 67 196q102 161 236 283q324 292 704 457q174 71 334 71h58q54 -3 127 -32q78 -31 118 -88q50 -74 50 -164q0 -53 -15 -109q-65 -219 -248 -475q-104 -137 -190 -137q-46 0 -70 35q-12 18 -12 36q0 16 29 76 q41 78 86 78l20 -2q15 0 27 18l6 9q221 305 221 460q0 28 -12 72t-82 74q-73 31 -143 31q-204 0 -617 -250q-348 -210 -532 -477q-56 -80 -56 -142q0 -20 4 -45q6 -37 64 -80q52 -44 139 -69q112 -37 234 -43q25 -2 71 -6q67 -12 76 -60q0 -29 -18 -47q-27 -31 -195 -72 q-141 -48 -299 -129q-342 -174 -590 -426q-280 -280 -336 -600q-6 -41 -6 -82q0 -142 70 -270q51 -95 143 -166q180 -143 492 -143q273 0 532 92q355 129 766 446q387 296 873 750q14 14 28 14q23 0 23 -14q0 -19 -14 -33q-406 -395 -881 -776q-419 -332 -801 -469 q-270 -98 -543 -98q-382 0 -587 202q-191 185 -191 457q0 45 15 152q-295 -475 -691 -721q-168 -101 -311 -101q-9 0 -86 3t-178 110q-112 121 -133 350q-2 25 -2 74zM143 -258q0 -208 93 -324q83 -96 213 -96q171 0 372 158q378 295 658 780q321 550 473 1081 q76 270 76 517q0 68 -11 176q-30 265 -254 440q-129 100 -280 100q-83 0 -168 -24q-168 -52 -309 -172q-281 -245 -418 -647q-78 -239 -78 -426q0 -93 12 -93h2l115 189q76 134 125 211q187 301 307 301q19 0 41 -15q27 -21 27 -65q-3 -40 -19 -84q-30 -82 -55 -82 q-14 0 -31 14q-6 3 -10 7q-4 2 -8 2h-2q-60 -60 -66 -68q-226 -274 -383 -598q-8 -20 -8 -29q0 -8 4 -20q31 -98 92 -156q175 -172 383 -172q28 0 90 8l13 2q18 0 18 -8q0 -7 -24 -16q-59 -17 -109 -17q-125 0 -264 68q-95 43 -170 119q-61 61 -80 108q-15 -12 -18 -28 l-5 -6q-214 -438 -319 -893q-25 -119 -25 -242z" />
<glyph unicode="&#x153;" horiz-adv-x="1116" d="M-287 268q0 58 19 113q57 144 123 231q22 26 51 68q73 85 182 88q74 0 80 -94q0 -7 -4 -27q82 82 194 129q30 12 56 12q22 0 43 -12q35 -21 35 -69q0 -27 -17 -54q-2 0 -2 -2q-63 -90 -252 -184q-29 -16 -59 -16q-13 0 -37 8q-31 -54 -31 -92q0 -13 2 -27q3 -27 35 -49 q33 -26 86 -29q133 0 395 131q225 112 361 213q4 4 10 4q12 0 12 -12q0 -21 -155 -125q-213 -147 -426 -225q-128 -49 -226 -49q-52 0 -90 24q-75 51 -75 162q-156 -197 -238 -197q-56 0 -68 58zM-219 281q0 -35 18 -35q12 0 25 8q93 69 156 149q4 5 106 154q29 63 29 94 q0 9 -4 21q-9 30 -29 30q-34 -7 -82 -55q-130 -130 -197 -276q-22 -52 -22 -90zM172 528q49 13 131 76q77 59 86 92q-107 -33 -217 -168z" />
<glyph unicode="&#x178;" horiz-adv-x="1609" d="M49 721l2 43q30 336 279 840q111 227 286 491q158 237 283 365q88 94 143 94q18 0 41 -10q37 -18 37 -58q0 -13 -6 -28q-27 -58 -41 -58q-10 0 -16 35q-84 -72 -226 -276q-229 -334 -364 -596q-181 -345 -258 -615q-39 -127 -39 -219q0 -45 4 -65q9 -70 68 -70q6 0 30 4 q146 35 375 233q190 163 340 330q236 253 739 869l29 34q24 31 127 172q159 234 207 234q31 0 49 -21q10 -10 10 -22q0 -2 -4 -14q-3 -5 -19 -32.5t-24 -43.5q-8 -15 -24 -42.5t-21 -35.5q-115 -186 -186 -309l-92 -166q-341 -608 -754 -1460q-226 -474 -410 -922 q-145 -359 -145 -449q0 -28 2 -34q4 -12 4 -21q0 -20 -29 -20q-20 0 -36 16q-23 23 -23 86q0 92 109 385q142 387 387 932q326 735 733 1452l2 4q5 8 14 31q-11 -4 -198 -228l-246 -290q-460 -537 -780 -717q-109 -62 -191 -62q-55 0 -94 33q-74 62 -74 201zM1481 2796 q6 45 28 88q44 86 105 86q57 0 57 -72q0 -50 -33 -86q-72 -78 -114 -78q-40 0 -43 62zM1796 2816q0 25 16 57t39 52q26 23 60 26q41 0 61 -26q13 -16 13 -35q0 -10 -7 -31q-65 -137 -110 -137q-27 0 -49 31q-23 33 -23 63z" />
<glyph unicode="&#x2c6;" horiz-adv-x="491" d="M348 1761q0 8 10 21q53 35 113 98l80 82q25 14 39 14q8 0 12 -4q16 -13 16 -33l-4 -18q-32 -92 -32 -147l2 -27q0 -8 -15 -14q-8 0 -10 2q-16 13 -16 47q0 32 6 67q2 10 2 45l-45 -47q-96 -108 -133 -108q-25 0 -25 22z" />
<glyph unicode="&#x2dc;" horiz-adv-x="677" d="M295 1702q0 63 139 104q60 -3 72 -96q6 -27 20 -27q17 0 90 31q68 28 93 49q11 11 20 11q5 0 12 -7q9 -9 9 -12q0 -7 -11 -18q-41 -42 -106 -76q-100 -47 -135 -47q-56 0 -68 92q-10 27 -16 27q-12 0 -23 -11q-30 -13 -35 -24q-12 -21 -37 -21q-24 0 -24 25z" />
<glyph unicode="&#x2000;" horiz-adv-x="1565" />
<glyph unicode="&#x2001;" horiz-adv-x="3131" />
<glyph unicode="&#x2002;" horiz-adv-x="1565" />
<glyph unicode="&#x2003;" horiz-adv-x="3131" />
<glyph unicode="&#x2004;" horiz-adv-x="1043" />
<glyph unicode="&#x2005;" horiz-adv-x="782" />
<glyph unicode="&#x2006;" horiz-adv-x="521" />
<glyph unicode="&#x2007;" horiz-adv-x="521" />
<glyph unicode="&#x2008;" horiz-adv-x="391" />
<glyph unicode="&#x2009;" horiz-adv-x="626" />
<glyph unicode="&#x200a;" horiz-adv-x="173" />
<glyph unicode="&#x2010;" horiz-adv-x="1175" d="M446 621q3 32 46 38q53 9 100 9l442 -2q133 0 133 -45q-9 -37 -34 -37q-10 2 -168 2q-180 -3 -269 -6q-78 -5 -94 -5q-124 0 -143 19q-13 10 -13 27z" />
<glyph unicode="&#x2011;" horiz-adv-x="1175" d="M446 621q3 32 46 38q53 9 100 9l442 -2q133 0 133 -45q-9 -37 -34 -37q-10 2 -168 2q-180 -3 -269 -6q-78 -5 -94 -5q-124 0 -143 19q-13 10 -13 27z" />
<glyph unicode="&#x2012;" horiz-adv-x="1175" d="M446 621q3 32 46 38q53 9 100 9l442 -2q133 0 133 -45q-9 -37 -34 -37q-10 2 -168 2q-180 -3 -269 -6q-78 -5 -94 -5q-124 0 -143 19q-13 10 -13 27z" />
<glyph unicode="&#x2013;" horiz-adv-x="1478" d="M446 621q4 32 65 38q76 9 142 9l628 -2q189 0 189 -45q-13 -37 -48 -37q-14 2 -239 2q-256 -3 -382 -6q-111 -5 -133 -5q-177 0 -204 19q-18 10 -18 27z" />
<glyph unicode="&#x2014;" horiz-adv-x="2502" d="M446 621q9 32 131 38q150 9 284 9l1255 -2q378 0 378 -45q-26 -37 -97 -37q-28 2 -477 2q-511 -3 -764 -6q-221 -5 -267 -5q-352 0 -406 19q-37 10 -37 27z" />
<glyph unicode="&#x2018;" horiz-adv-x="391" d="M373 1724q0 111 76 187q25 25 57 33q51 0 51 -39q0 -15 -12 -33q-35 -28 -60 -53q-39 -39 -39 -88q0 -28 39 -48q19 0 19 -22q0 -20 -19 -23h-8q-41 0 -71 23q-27 24 -33 63z" />
<glyph unicode="&#x2019;" horiz-adv-x="483" d="M381 1683q0 9 10 29q45 54 76 123q22 36 22 59q0 24 -16 43q0 2 -1 5.5t-1 5.5q0 28 43 28q68 -6 68 -90q0 -24 -17 -51q-53 -91 -112 -156q-22 -22 -43 -22q-29 0 -29 26z" />
<glyph unicode="&#x201a;" horiz-adv-x="593" d="M258 37q0 14 55 90q43 64 43 119v18q0 47 29 47q59 0 68 -94q0 -15 -9 -47q-15 -44 -125 -154q-16 -16 -30 -16q-31 0 -31 37z" />
<glyph unicode="&#x201c;" horiz-adv-x="546" d="M274 1679q12 128 99 209q29 33 61 33q5 0 21 -4q13 -3 18 -14q8 -8 8 -17q0 -17 -14 -31q-51 -64 -64 -75q-40 -56 -51 -88q-6 -18 -6 -33q0 -13 21 -23q10 -7 10 -26q-12 -15 -31 -21h-12q-60 0 -60 90zM420 1645q20 127 112 243q25 25 56 25q29 0 35 -37q0 -15 -5 -25 q-99 -145 -114 -188q-2 -2 -4 -2q-6 -18 -6 -39q0 -19 14 -33q2 -4 2 -24q-6 -21 -25 -21q-65 0 -65 101z" />
<glyph unicode="&#x201d;" horiz-adv-x="624" d="M401 1698q0 9 11 20q94 107 94 174q0 35 -14 60q-10 14 -11 20q0 9 8 21t15 14q9 6 16 6q35 -9 47 -53q11 -50 11 -55q0 -81 -113 -209q-20 -23 -35 -23l-8 4q-5 0 -14 9q-7 10 -7 12zM520 1673q0 8 12 29q107 143 107 190q0 24 -16 45l-5 13q0 35 33 35q35 0 58 -39 q18 -27 18 -64q0 -15 -16 -55q-50 -80 -131 -164q-2 0 -2 -2q-6 -6 -27 -10q-12 0 -21 6q-10 10 -10 16z" />
<glyph unicode="&#x201e;" horiz-adv-x="532" d="M106 45q0 2 5 12q32 47 49 86q1 3 5.5 11.5t6.5 13.5q9 15 12 31q4 8 4 26l-4 29q0 31 33 31q11 0 23 -6q28 -19 28 -60q0 -48 -47 -119q-40 -61 -76 -80l-10 -2q-15 0 -22 13q-7 3 -7 14zM233 -6q0 14 11 22q52 78 61 195q0 59 37 59q14 0 29 -18q16 -19 16 -59 q-9 -110 -104 -205q-12 -15 -29 -15q-21 0 -21 21z" />
<glyph unicode="&#x2022;" horiz-adv-x="835" d="M479 571q9 90 76 154q28 25 68 25q32 -3 69 -25q45 -33 45 -98q0 -67 -49 -131q-48 -60 -98 -60q-17 0 -43 15q-65 41 -68 120z" />
<glyph unicode="&#x202f;" horiz-adv-x="626" />
<glyph unicode="&#x2039;" horiz-adv-x="706" d="M156 573q0 33 45 56l84 47q202 117 313 155h6q16 0 25 -22q0 -9 -21 -18q-113 -50 -264 -144q-19 -13 -56 -34.5t-52 -30.5q-5 -5 -5 -9q8 -10 15 -14l6 -4q137 -83 246 -135q16 -10 16 -21q0 -10 -12 -22l-10 -8q-26 7 -95 37q-120 59 -207 114q-34 24 -34 53z" />
<glyph unicode="&#x203a;" horiz-adv-x="686" d="M119 397q0 8 20 17q130 61 262 145q16 9 53 31t58 33q1 1 2 4.5t2 5.5q-8 11 -14 14l-8 4q-119 74 -244 135q-19 10 -19 19q0 12 13 22l12 11q27 -7 92 -37q113 -54 209 -115q35 -27 35 -53q0 -35 -45 -58l-84 -47q-206 -117 -316 -153h-4q-18 0 -24 22z" />
<glyph unicode="&#x205f;" horiz-adv-x="782" />
<glyph unicode="&#x20ac;" horiz-adv-x="1179" d="M0 606q0 20 43 23q13 2 42 5t44 5q17 0 27 16q12 49 73 183v6l-18 2l-27 -4q-64 -10 -73 -11h-13q-6 3 -6 17q0 16 23 26q76 17 116 17q26 0 37 20q42 79 131 193q75 93 168 162q107 73 221 73q42 0 72 -12q98 -30 98 -147q0 -84 -43 -84q-31 3 -34 22q-2 12 -2 35 q0 54 -15 80q-20 29 -94 29q-33 0 -80 -13q-98 -30 -180 -112q-99 -89 -180 -232l-2 -8q8 -4 20 -4q128 0 195 -25q10 -2 10 -14q-3 -20 -14 -20q-3 0 -9.5 1t-9.5 1q-12 4 -18 4q-64 10 -119 10q-84 0 -90 -12q-44 -90 -78 -187q2 0 5.5 -1t4.5 -1q2 -2 17 -2q46 4 67 4 q140 0 140 -30q-4 -12 -15 -15q-2 1 -65 4q-49 0 -99 -4q-6 0 -23 -1t-26 -1q-25 0 -37 -31q-63 -195 -63 -325q0 -93 37 -154q30 -67 86 -67q19 0 57 10q178 59 299 192q36 41 94 117q11 14 23 14l4 -8q-15 -32 -98 -135q-82 -97 -211 -172q-101 -61 -168 -61 q-87 0 -133 98q-41 84 -41 170q0 126 43 262l22 82q-25 0 -65 -4q-20 -4 -56 -4q-14 0 -14 18z" />
<glyph unicode="&#x2122;" horiz-adv-x="1214" d="M676 1716q0 37 31 43q145 37 245 37l103 -8q45 -15 45 -31q-6 -22 -43 -22l-43 2q-29 0 -41 -2q-24 -4 -33 -4q-34 -3 -43 -33q-30 -69 -57 -152q-13 -45 -58 -157q-13 -13 -16 -41l6 -23q-3 -35 -49 -35q-29 0 -29 23q0 12 17 61q24 78 34 117q3 11 29 92q4 16 33 96 l6 23l-18 2q-27 0 -45 -6q-11 0 -31 -4q-15 -6 -29 -6q-14 6 -14 28zM1028 1346q0 15 6 30q114 391 183 391q38 0 47 -41l6 -32q12 -103 24 -150q5 7 20.5 30.5t26.5 39.5q99 135 127 135q11 0 19 -2q14 -3 14 -49q0 -42 -37 -273q0 -20 -6 -32l-4 -50q0 -16 8 -32 q0 -14 -16 -27h-10q-43 0 -43 76q0 56 14 151q14 72 14 129l-32 -34q-17 -35 -37 -60q-6 -9 -19.5 -27.5t-19.5 -27.5q-20 -27 -37 -27q-35 0 -41 39q-7 29 -12 41q-5 14 -9 35q-2 15 -16 35q-15 -22 -96 -252q-12 -43 -43 -43t-31 27z" />
<glyph unicode="&#x25fc;" horiz-adv-x="911" d="M0 0v911h911v-911h-911z" />
<glyph unicode="&#xe060;" horiz-adv-x="1148" d="M-754 197q0 10 15 16q85 53 159 117q153 132 215 241l3 4q0 5 -7 9q-18 15 -18 43q0 24 8 43q18 55 62 102q21 21 51 21q12 0 37 -7q15 -5 32 -22q15 -15 15 -35q0 -25 -23 -55q76 -30 113 -64q32 -28 35 -82q0 -36 -29 -86l-107 -159q-106 -160 -106 -275q0 -88 92 -88 q19 0 53 6q78 15 232 131q90 67 309 256l188 160q146 116 216 141q6 0 8 -2t2 -8v-2l-2 -4q-103 -59 -320 -264q-344 -321 -518 -424q-116 -70 -203 -70q-80 0 -118 62q-31 51 -31 104q0 62 29 144q27 68 106 204l41 74q25 48 25 66q0 28 -41 43q-51 14 -52 14q-4 0 -4 -4 q-2 -2 -4 -2q-214 -267 -430 -361q-9 -6 -18 -6q-15 0 -15 19z" />
</font>
</defs>
</svg>
